<?xml version="1.0" standalone="no"?>
<!DOCTYPE svg PUBLIC "-//W3C//DTD SVG 1.1//EN" "http://www.w3.org/Graphics/SVG/1.1/DTD/svg11.dtd" >
<!--
2013-9-30: Created.
-->
<svg>
<metadata>
Created by iconfont
</metadata>
<defs>

<font id="iconfont" horiz-adv-x="1024" >
  <font-face
    font-family="iconfont"
    font-weight="500"
    font-stretch="normal"
    units-per-em="1024"
    ascent="896"
    descent="-128"
  />
    <missing-glyph />
    
    <glyph glyph-name="zhongdianquyuzhengzhi" unicode="&#58940;" d="M496.64 896h27.648C778.922667 890.88 1006.592 683.008 1024 427.349333v-73.728c-6.826667-257.706667-234.496-467.285333-487.082667-481.621333h-31.402666a1701.888 1701.888 0 0 0-205.141334 47.786667c20.138667 13.994667 59.733333 41.642667 79.530667 55.637333 157.696-23.210667 338.261333-6.826667 447.488 124.586667 173.397333 176.810667 136.874667 496.64-70.997333 630.784C547.157333 888.149333 216.064 784.042667 126.634667 540.330667c-72.362667-145.066667 30.378667-302.421333-20.138667-451.584C36.522667 195.242667-10.581333 323.584 12.629333 452.608 39.594667 693.930667 256.682667 883.029333 496.64 896zM320.853333 644.437333c91.136 77.824 217.088 69.290667 327.68 51.882667-43.349333-121.514667-183.296-49.834667-265.216-114.688-129.024-79.872-139.946667-284.330667-21.504-378.538667 114.005333-103.424 319.146667-57.685333 374.442667 87.04 48.128 84.992-0.341333 174.762667-24.234667 258.389334l75.093334 38.229333c59.392-116.736 86.357333-265.898667 5.461333-379.904-103.082667-173.397333-373.077333-200.704-508.586667-50.858667C146.432 287.061333 165.205333 535.210667 320.853333 644.437333zM377.514667 384c-10.581333 84.650667 75.434667 120.490667 133.802666 157.013333 92.842667-25.258667 193.877333-119.466667 132.437334-221.525333-58.368-129.024-278.528-79.872-266.24 64.512z"  horiz-adv-x="1024" />

    
    <glyph glyph-name="maodunfenxi" unicode="&#58941;" d="M319.36 848C590.4 981.12 936.64 796.48 1008 510.72v-254.08c-30.72-67.2-60.48-226.24-160.64-160.96 31.04 95.68 95.68 183.36 87.68 288.64 5.44 121.28-60.16 227.52-132.48 319.04-33.28-79.04-96.64-136.32-157.76-192.96 1.28-84.48 1.28-168.96 0-253.44 45.12-65.28 137.28-119.36 118.4-210.56-71.36 47.68-128 112.32-181.76 178.24-0.32 105.92-0.64 211.84 0.32 317.76 62.4 64 124.16 131.84 206.4 171.52-73.6 35.52-144.96 82.88-228.8 87.36-87.36 11.84-169.92-24.64-254.4-39.04-42.56 19.52-36.16 82.24 14.4 85.76zM251.52 656.32c-8.64 28.48 2.24 44.8 33.28 48.32 64-48 117.44-107.84 174.08-164.16-0.96-104-0.32-207.68 0.32-311.68-60.8-58.24-99.84-153.6-191.04-167.36-3.2 87.68 90.56 125.76 122.24 198.08 7.68 84.16 0.32 169.28 3.52 254.08-47.68 47.04-99.2 90.88-142.4 142.72zM16 444.16c8.96 102.08 54.08 198.08 127.36 270.08 68.48-64.96-4.16-133.44-23.68-200.32-89.6-236.48 88.64-522.88 340.8-545.6 98.56-20.48 190.72 32.96 288 31.36 40.64-83.52-73.28-93.76-128.32-110.4C342.08-174.08 39.04 37.76 16 324.48v119.68z"  horiz-adv-x="1024" />

    
    <glyph glyph-name="sifahangzhenggongzuo" unicode="&#58942;" d="M396.8 853.12c40.96 27.52 96.96 57.28 144.64 24.64C671.68 800.64 801.28 721.28 929.28 640c57.92-24.32 72.64-110.08 11.84-141.12-120.32-83.52-249.92-153.28-373.44-232.32-101.12-66.56-197.12 31.36-281.28 78.72-94.08 66.24-211.2 104.96-283.84 197.44l8.96 64.32C131.52 701.44 269.76 768.96 396.8 853.12zM0 372.8c165.44-10.24 282.56-142.72 425.28-210.56 45.76-36.16 100.16-12.48 150.08-2.56 6.08-20.48 18.56-61.12 24.64-81.6-64.96-15.68-136.32-43.52-195.84 3.2-136 84.8-281.6 157.44-404.16 262.4v29.12zM895.36 309.12c-14.72 49.92 5.76 66.88 60.8 50.88 13.12-49.6-7.36-66.56-60.8-50.88zM644.16 214.4c25.28 35.84 78.4 71.04 122.88 59.52 14.08-54.72-96-107.52-122.88-59.52zM756.48 176.96c34.56 40 57.92 87.68 85.12 132.8 37.76-95.04 105.92-165.44 214.4-162.88v-12.16c-28.16-34.56-60.16-65.6-85.12-102.72-1.6-53.44 5.12-106.56 8.32-160h-30.08c-53.44 52.48-146.56 81.6-199.68 12.16l17.92-12.16h-50.24c8.32 107.52-10.88 210.24-104.32 275.52 48.64 7.04 96.64 16.64 143.68 29.44zM0 214.72c183.04-24.64 309.44-178.56 477.44-240.64 69.76-21.12 173.44 134.72 200.64 27.2-55.04-85.76-184.64-161.92-278.08-84.8-132.8 87.36-277.44 158.08-400 260.48v37.76z"  horiz-adv-x="1056" />

    
    <glyph glyph-name="zhongdashixiangbaobeitongji" unicode="&#58943;" d="M698.175772 893.153171h183.078175c59.445702-29.9052 136.396888-67.833746 134.938098-145.514327 8.023346-231.582951 4.011673-463.5306 2.188185-695.113551 8.752741-98.468341-84.245137-182.713478-180.160595-176.51362-218.089141-5.105766-436.542981-4.741068-654.632122-0.364697-102.115317-9.846834-181.254688 83.880439-177.97241 181.254687C-0.220058 274.26141 1.238733 492.350551 4.885708 710.074995 2.332825 792.861342 56.308064 880.388756 143.835479 890.23559 201.092996 880.753454 335.666396 933.6346 313.419845 826.778215c-70.751327-48.504776-228.300673-1.45879-224.653698-122.538381-6.929254-192.92501-0.729395-386.214717-2.91758-579.139727-0.364698-57.986912 1.094093-143.326141 73.30421-157.184648 190.372127-16.046693 381.838346-1.823488 572.210473-7.293952 66.374956 4.011673 173.596039-14.9526 193.654405 71.84542 13.49381 224.289 6.199859 450.03679 4.011673 674.690488 7.658649 144.420234-238.147507 31.728688-230.853556 185.995756zM354.265972 874.188898c97.738946 26.622922 218.818537 32.093385 314.0046-1.823488 27.352317-96.644854-103.938805-71.84542-157.914044-78.045278-53.975239 5.470463-184.172268-16.776088-156.090556 79.868766zM611.377752 562.372483c13.129112 57.986912 8.388044 146.60842 82.056951 164.843298 94.456668 47.045985 214.442166-66.374956 165.937391-163.01981-26.622922-77.315883-118.16201-74.763-184.172269-67.833747-53.245844-44.128405-102.115317-92.997878-154.996463-137.126282-37.928546 30.634595-74.398302 64.186771-117.797312 86.433321-74.763-48.140078-127.644146-155.361161-230.488859-132.020517 52.881146 99.197737 143.326141 169.584366 223.924303 245.076761 39.752034-30.999293 78.774673-63.092678 117.432614-95.550761 32.82278 32.82278 65.645561 65.645561 98.103644 99.197737m102.844712 88.25681c-53.245844-19.693668-10.940927-117.432615 48.140079-77.315883 68.927839 25.528829 1.823488 117.432615-48.140079 77.315883zM203.281181 237.791654c213.348073 10.940927 428.519634 10.940927 642.232405 0.364697 0.364698-17.140785 1.094093-51.422356 1.823488-68.927839-212.253981-17.87018-425.966751-9.482137-638.585429-5.105766-1.45879 18.599576-4.376371 55.069332-5.470464 73.668908zM173.375981 48.148922c41.575522 69.657234 123.997171 49.598868 189.278035 53.975239 160.466927-4.011673 321.663249 7.293951 481.40078-7.658649l11.670322-49.963566c-74.398302-30.269898-156.819951-15.681995-234.865229-18.964273-149.161302 5.835161-301.604883-16.41139-447.483908 22.611249z"  horiz-adv-x="1024" />

    
    <glyph glyph-name="chengxiangjiehebuzhengzhi" unicode="&#58944;" d="M574.852414 896h8.827586C789.186207 864.926897 963.61931 714.857931 1024 516.06069v-87.922759c-78.035862-0.353103-156.071724-0.353103-234.107586 0-46.962759 94.631724-119.702069 171.608276-216.452414 216.09931 0.706207 84.038621 0.706207 167.724138 1.412414 251.762759zM0 438.377931C32.485517 674.957241 229.164138 868.457931 466.802759 895.646897c1.05931-83.685517 1.412414-167.371034 1.412413-251.409656-96.750345-43.784828-173.02069-117.936552-215.746206-215.746207-84.038621-0.353103-168.430345-0.706207-252.468966-0.706206v10.593103zM415.249655 535.481379c51.2 13.417931 69.561379-3.177931 55.084138-50.846896-50.493793-12.711724-69.208276 4.237241-55.084138 50.846896zM365.815172 438.377931c103.45931-31.77931 154.65931 57.202759 210.802759 123.586207-11.652414-40.606897-23.657931-80.86069-36.369655-121.114483l43.078621-2.824827c5.296552 21.186207 16.242759 63.558621 21.53931 84.744827 28.954483-42.725517 55.790345-86.510345 80.86069-132.060689-106.990345 9.18069-219.630345 4.590345-319.911725 47.668965zM380.292414 242.052414c18.008276 71.68 68.855172 119.348966 137.004138 143.713103 47.668966-10.24 95.691034-19.42069 143.713103-27.895172-1.765517-35.663448-3.884138-71.326897-5.649655-106.990345-56.143448 0.353103-112.64 0.353103-168.783448 0l21.892414 96.750345a1049.705931 1049.705931 0 0 0-128.176552-105.577931m162.074483 90.747586c3.884138-117.230345 110.168276 53.318621 0 0zM787.42069 321.50069c78.742069 0.353103 157.484138 0 236.57931 0v-77.329656c-49.081379-178.317241-193.147586-322.030345-371.111724-372.171034h-78.035862c-0.353103 79.095172-0.706207 157.837241-0.706207 236.932414 94.984828 44.137931 168.430345 117.936552 213.274483 212.568276zM0.353103 319.382069c84.038621 2.118621 168.077241 2.471724 251.762759 2.824828 44.137931-96.397241 120.408276-169.489655 215.393104-215.04 0.706207-78.388966 0.706207-156.777931 0.706206-235.166897h-66.736551C187.144828-84.568276 28.601379 106.46069 0.353103 319.382069z"  horiz-adv-x="1024" />

    
    <glyph glyph-name="qingbaochuzhifenxi" unicode="&#58945;" d="M145.408 523.264C164.522667 640 94.890667 802.474667 204.458667 885.077333 467.968 903.168 732.842667 885.76 997.034667 892.586667L1058.133333 824.661333v-940.714666c-2.730667-3.072-8.533333-8.874667-11.264-11.946667h-460.8c49.152 54.272 89.088 115.029333 128.682667 176.469333 76.117333 13.994667 200.362667-38.229333 224.938667 65.536-70.314667 0.682667-140.288 1.365333-210.602667 3.754667 0.341333 41.642667 0.341333 83.285333 0.341333 124.928 62.464 2.389333 124.586667 2.389333 187.050667 1.365333 0.682667 16.725333 1.706667 49.493333 2.048 66.218667-68.608-0.341333-136.874667 0-205.482667 1.024a3345.408 3345.408 0 0 0-79.530666 128.682667c97.28-1.024 194.56 0.341333 291.84 0.682666l-0.341334 60.416c-153.6 7.168-314.709333-23.210667-459.776 43.008-104.448 45.738667-217.429333 12.629333-319.829333-20.821333M269.312 694.613333c5.461333-14.677333 16.725333-44.373333 22.528-59.392 133.12-3.754667 270.677333-18.432 401.408 15.701334l-40.618667 41.642666c-127.317333 16.042667-255.658667 2.389333-383.317333 2.048m516.778667-1.365333c-1.706667-91.818667 152.917333-87.04 150.528 3.072-50.176-1.365333-100.352-2.389333-150.528-3.072zM21.504 112.64C-23.552 291.157333 122.88 483.669333 303.445333 500.736c172.032 26.282667 345.088-113.322667 361.130667-285.013333 21.162667-147.456-76.8-287.061333-209.237333-343.722667H235.52c-105.130667 39.936-189.781333 129.365333-214.016 240.64m200.704 280.234667c-164.864-82.261333-163.84-347.136 2.048-428.032 141.994667-85.333333 339.626667 16.725333 360.106667 178.176 38.229333 191.488-195.584 353.621333-362.154667 249.856zM300.714667 347.477333c17.749333-1.024 53.589333-3.413333 71.68-4.437333-2.389333-48.469333-3.413333-96.938667-3.413334-145.066667 37.888-41.984 100.693333-77.824 101.034667-140.288-76.8-36.181333-118.101333 60.757333-171.349333 98.304 1.706667 63.829333 2.389333 127.658667 2.048 191.488z"  horiz-adv-x="1058" />

    
    <glyph glyph-name="pinganbeijing" unicode="&#58939;" d="M153.031111 647.111111c136.817778-1.706667 242.631111 79.075556 337.92 166.968889 1.422222-112.355556 0.568889-224.995556 1.137778-337.351111-111.786667 0-223.857778-0.284444-335.644445 0.284444l-3.413333 170.097778zM548.408889 477.013333c1.422222 114.346667-1.991111 228.977778 3.697778 343.04 59.733333-43.235556 107.804444-100.977778 168.391111-143.075555 49.777778-23.324444 106.666667-21.902222 160.142222-29.297778-1.137778-56.888889-1.422222-113.777778-1.422222-170.382222-110.364444-0.853333-220.444444-0.853333-330.808889-0.284445zM157.297778 416.711111c111.502222 0.284444 223.004444 0.284444 334.506666 0.284445-0.853333-166.115556 1.991111-331.946667-1.706666-497.777778-186.311111 97.848889-325.12 282.453333-332.8 497.493333zM550.968889-79.36c-3.982222 165.546667-1.422222 330.808889-1.706667 496.355556 109.795556-0.284444 219.591111 0 329.671111-0.284445-3.128889-210.488889-139.377778-409.884444-327.964444-496.071111z"  horiz-adv-x="1024" />

    
    <glyph glyph-name="shuangjiantouzuo" unicode="&#59156;" d="M296.9 384l280.5 280.5c11.7 11.7 11.7 30.7 0 42.4s-30.7 11.7-42.4 0L233.3 405.2c-11.7-11.7-11.7-30.7 0-42.4L535 61c5.9-5.9 13.5-8.8 21.2-8.8 7.7 0 15.4 2.9 21.2 8.8 11.7 11.7 11.7 30.7 0 42.4L296.9 384z m493.9-280.5L510.2 384l280.5 280.5c11.7 11.7 11.7 30.7 0 42.4s-30.7 11.7-42.4 0L446.6 405.2c-11.7-11.7-11.7-30.7 0-42.4L748.3 61c5.9-5.9 13.5-8.8 21.2-8.8 7.7 0 15.4 2.9 21.2 8.8 11.8 11.8 11.8 30.7 0.1 42.5z"  horiz-adv-x="1024" />

    
    <glyph glyph-name="zongzhizhongxin" unicode="&#58937;" d="M449.706667 677.262222c25.6 48.355556 53.475556 95.573333 85.902222 139.662222 24.177778-44.088889 47.217778-89.031111 69.688889-133.973333 52.337778-9.386667 104.675556-18.488889 156.444444-31.573333-31.573333-38.4-67.413333-72.817778-99.271111-111.217778-8.533333-52.906667 11.377778-108.373333 8.533333-162.133333-48.355556 19.057778-95.288889 42.097778-141.937777 65.137777-48.071111-24.177778-96.426667-47.217778-146.204445-67.413333 4.266667 52.053333 12.231111 103.537778 21.617778 154.737778-34.702222 34.986667-69.688889 69.973333-101.831111 107.52 41.813333 32.426667 97.848889 28.16 147.057778 39.253333zM536.746667 412.444444c9.386667-30.435556 17.92-61.155556 26.168889-92.16 78.791111-2.56 160.142222 10.524444 237.226666-9.955555 8.817778-23.04 26.453333-68.551111 35.271111-91.306667 33.848889 0.568889 67.413333 0.853333 100.977778 0.853334 0.284444-83.911111 0.568889-167.822222 0.284445-251.733334-101.262222-3.128889-202.808889-5.688889-303.786667 3.982222-2.56 78.791111-8.248889 158.151111 2.844444 236.657778 44.657778 12.8 91.591111 10.524444 137.671111 13.653334-0.568889 11.662222-1.706667 34.986667-1.991111 46.648888-157.013333-3.413333-314.595556 3.697778-471.04-3.128888-9.671111-7.964444-29.013333-23.608889-38.684444-31.288889 45.511111-8.533333 91.306667-17.92 136.817778-27.875556 29.297778-69.404444 12.515556-152.462222 8.533333-226.702222-101.831111-29.582222-212.195556-12.231111-316.871111-7.395556-2.275556 78.506667-8.248889 157.582222 2.844444 235.804445 40.675556 13.653333 83.911111 10.808889 126.008889 12.8 15.36 30.435556 15.075556 74.524444 47.786667 93.297778 73.386667 13.084444 148.48 1.706667 222.151111 8.248888 11.946667 22.471111 35.84 67.128889 47.786667 89.6z"  horiz-adv-x="1024" />

    
    <glyph glyph-name="zhengchangshangfang" unicode="&#58938;" d="M154.737778 777.671111c43.52-2.56 87.04-5.12 130.56-8.533333 13.084444-65.706667 30.72-130.275556 46.933333-195.413334-27.875556 0.284444-83.911111 0.568889-112.071111 0.568889-20.195556 68.266667-41.813333 136.248889-65.422222 203.377778zM543.857778 777.386667c48.355556-1.137778 96.426667-3.128889 144.782222-6.826667l11.377778-94.72c66.56-1.706667 132.835556-2.275556 199.395555-1.991111 0.853333-26.737778 2.56-80.213333 3.697778-106.666667l-289.848889 0.853334c-0.284444-27.875556-0.853333-83.057778-0.853333-110.648889 70.542222-1.706667 143.075556 7.964444 212.48-8.248889 49.493333-15.928889 45.795556-79.075556 62.577778-118.897778-16.213333-95.857778-5.973333-193.706667-25.031111-288.995556-74.524444-44.942222-161.28-40.96-244.906667-40.391111-13.937778 29.013333-27.591111 57.742222-41.528889 86.755556 58.595556 1.422222 117.475556 1.706667 176.071111 2.56 8.533333 86.186667 7.964444 172.942222 6.826667 259.413333-54.613333-0.568889-109.226667-1.991111-163.84-4.835555-1.137778-134.542222-74.808889-249.457778-139.093334-362.097778a2786.133333 2786.133333 0 0 0-89.031111 41.244444c-59.733333-20.764444-143.928889-29.866667-172.942222 41.813334-9.386667 118.897778 3.128889 238.364444-3.982222 357.262222-17.92 2.844444-53.475556 9.102222-71.111111 11.946667 0.568889 26.168889 1.422222 78.506667 1.991111 104.675555 59.164444-2.275556 117.475556-13.653333 172.657778-34.986667 11.946667-128.284444 1.991111-256.853333 7.111111-385.137777l70.542222-40.96c60.017778 92.444444 98.986667 195.697778 118.044444 303.786666 4.266667 61.724444 7.395556 123.448889 8.817778 185.173334l-120.888889-3.413334c-2.56 20.48-7.964444 61.155556-10.524444 81.635556 56.035556 54.328889 149.048889 16.782222 221.297778 34.702222-15.36 32.142222-29.866667 64.568889-44.088889 96.995556z"  horiz-adv-x="1024" />

    
    <glyph glyph-name="zhongdajuecefenxi" unicode="&#58936;" d="M589.44 860.8l138.88-1.28c1.92-87.04 1.6-174.08 0.32-261.12-20.8 16-62.4 47.68-83.2 63.68-15.04-20.8-45.12-62.08-60.16-82.88-0.64 93.76-0.32 187.84 4.16 281.6zM821.76 684.16c47.68-0.64 95.36-1.28 143.04-2.56 0.64-76.8 0.96-153.6-0.96-230.4-54.08 15.68-102.08 45.44-148.16 77.44 2.24 51.84 4.16 103.68 6.08 155.52zM134.08 599.36c46.72-0.32 93.12-1.28 139.84-2.88 1.6-74.56 1.28-149.12 5.76-223.68l-118.4 11.84c26.24-23.68 78.4-71.36 104.64-95.04l1.28 24.64c47.68-28.16 95.68-55.68 144.32-82.24 84.48 120.32 160 247.04 246.72 366.08 74.88-55.04 144-118.08 221.76-169.6 51.84-21.12 110.08-19.2 161.92-41.92-49.6-7.36-99.2-13.12-149.12-16.96-74.88 56-149.76 111.68-222.72 170.24-32.96-42.24-65.6-84.16-100.8-124.16 10.88-18.56 22.08-37.12 33.28-55.68 17.6 31.36 52.48 94.08 70.08 125.44 111.04-106.88 35.2-279.36 57.6-416-48.32-0.32-96.96-0.32-145.6 0-2.56 105.6 19.52 217.92-30.72 315.84-30.4-53.76-62.08-107.2-94.72-160 76.8-12.8 44.16-103.68 47.68-156.48-50.24 0.32-100.16 0.64-150.08 1.28-0.96 18.56-3.52 56.32-4.8 75.2 46.08-12.16 89.92-6.72 131.84 15.68-108.8 46.72-210.88 112.64-328 136.64-4.16-26.56-12.16-79.68-16-106.24 39.04 46.08 85.12 50.56 137.6 13.12l-1.92-135.36c-46.72 0-93.44 0-140.16-0.32-0.96 63.36-2.88 127.68-28.48 186.88l-59.84-36.48c24 53.76 64.64 87.68 122.24 101.44-62.72 78.72-28.8 186.56-35.2 278.72zM357.44 492.48c52.48-0.64 104.64-1.28 156.8-3.2-24.96-81.92-79.36-149.44-135.04-212.8-31.68 67.84-20.8 143.68-21.76 216zM816.64 346.88c49.28-14.4 98.88-27.2 149.12-38.72-0.32-79.68-0.32-159.68-0.32-239.36l-147.2 0.96c0.64 92.16 0.96 184.64-1.6 277.12zM50.88-18.24c29.12 29.76 67.84 39.04 108.16 35.2 285.76 0.64 571.84-1.92 857.6 1.28 0.96-12.16 3.2-35.84 4.16-48-323.2 6.72-647.68-14.08-969.92 11.52z"  horiz-adv-x="1088" />

    
    <glyph glyph-name="baozhi" unicode="&#58932;" d="M90.352941 896h843.294118v-1024H90.352941V896m95.171765-304.790588c181.308235-18.070588 364.423529-19.877647 545.129412 5.421176-173.477647 56.018824-392.131765 137.336471-545.129412-5.421176m45.778823-124.084706c13.854118-89.148235 235.52-88.545882 251.181177-1.204706-71.68 44.574118-178.898824 46.381176-251.181177 1.204706M227.689412 305.694118c0.602353-111.435294 3.614118-222.268235 1.204706-333.101177 109.628235 1.204706 219.858824 1.807059 330.089411 1.807059 0 111.435294-4.818824 222.268235-3.011764 333.703529-109.628235-1.204706-218.654118-1.807059-328.282353-2.409411m468.630588-173.477647c-83.124706-69.270588 28.912941-212.630588 111.435294-131.915295 83.727059 68.065882-29.515294 210.823529-111.435294 131.915295z"  horiz-adv-x="1024" />

    
    <glyph glyph-name="xinmeiti" unicode="&#58933;" d="M17.92 896h1111.68c5.76-5.76 16.64-17.28 22.4-23.04v-820.48c-150.4-5.76-291.2-60.16-433.92-101.76L877.44-128h-183.04l23.04 197.76c-87.04 5.12-173.44 10.24-260.48 14.08l10.88-96c-158.08 13.44-323.84 5.76-467.84 83.2V867.84L17.92 896m99.2-24.32c-23.04-21.12-70.4-64-93.44-85.76C12.16 563.84 25.6 341.12 0.64 119.68c371.2 72.96 779.52-81.28 1137.92 72.32-18.56 13.44-56.32 40.96-74.88 55.04 20.48 13.44 61.44 39.68 81.92 53.12-3.2 167.68-3.84 336 2.56 503.68-27.52 15.36-82.56 46.08-109.44 61.44C732.8 891.52 423.68 879.36 117.12 871.68zM117.12 871.68c306.56 7.68 615.68 19.84 921.6-6.4 26.88-15.36 81.92-46.08 109.44-61.44-6.4-167.68-5.76-336-2.56-503.68-20.48-13.44-61.44-39.68-81.92-53.12-316.16-32-634.88 8.96-950.4-26.24L0.64 119.68C25.6 341.12 12.16 563.84 23.68 785.92 46.72 807.68 94.08 850.56 117.12 871.68zM456.96 83.84c87.04-3.84 173.44-8.96 260.48-14.08L694.4-128H341.76c33.28 12.16 100.48 35.84 134.4 48l-8.32 67.84-10.88 96z"  horiz-adv-x="1152" />

    
    <glyph glyph-name="dianshitai" unicode="&#58934;" d="M252.099048 896h148.723809L284.281905 878.445714C367.664762 817.980952 444.708571 749.714286 517.36381 677.546667c49.737143 41.447619 99.961905 82.895238 150.674285 123.367619 8.777143 23.405714 26.331429 71.192381 34.620953 95.085714h68.754285l7.801905-83.870476c-53.638095-58.026667-107.76381-115.078095-162.377143-171.641905 119.466667 0.975238 239.908571 2.925714 358.4-14.628571V-128H48.761905V617.081905c121.417143 30.72 247.710476 25.35619 371.565714 23.893333C355.474286 717.531429 232.106667 777.99619 252.099048 896M118.491429-74.849524c265.752381-0.975238 531.017143-0.975238 796.769523 0 0.975238 216.502857 2.925714 433.493333-1.462857 650.48381-264.289524 1.462857-528.579048 0.487619-792.380952 0.487619-10.24-216.990476-7.314286-433.980952-2.925714-650.971429zM171.154286 488.838095c230.64381 3.900952 460.8 0.975238 691.443809 0.975238 0-165.302857 0-330.605714 0.487619-495.908571-230.64381-0.975238-461.775238-3.900952-692.419047 1.462857 1.950476 164.327619 1.950476 329.142857 0.487619 493.470476m256-35.108571c-10.24-137.020952-9.752381-274.529524-0.487619-411.550476 92.16 65.828571 187.733333 129.706667 262.826666 215.527619-87.28381 65.340952-174.08 131.657143-262.339047 196.022857z"  horiz-adv-x="1024" />

    
    <glyph glyph-name="diantai" unicode="&#58935;" d="M245.76 896h80.715294c12.649412-22.287059 37.345882-66.861176 49.392941-89.148235-60.837647-63.849412-122.88-126.494118-184.922353-190.34353 277.684706 2.409412 555.369412 3.011765 833.054118-1.204706v-730.051764c-336.112941-10.24-672.225882-9.035294-1008.941176-1.807059-3.614118 236.122353-3.614118 472.244706 0 708.367059C114.447059 693.007059 213.835294 794.202353 312.621176 895.397647L245.76 896m57.223529-822.211765c141.552941 60.837647 188.536471 268.649412 5.421177 309.007059-207.811765-4.216471-175.887059-264.432941-5.421177-309.007059M591.510588 317.741176c89.750588-36.743529 204.8-39.152941 293.345883 2.409412-39.755294 77.101176-257.807059 77.101176-293.345883-2.409412m-1.204706-168.05647c34.334118-80.112941 254.192941-79.510588 294.550589-3.011765-88.545882 41.562353-204.197647 38.550588-294.550589 3.011765zM591.510588 317.741176c35.538824 79.510588 253.590588 79.510588 293.345883 2.409412-88.545882-41.562353-203.595294-39.152941-293.345883-2.409412zM590.305882 149.684706c90.352941 35.538824 206.004706 38.550588 294.550589-3.011765-40.357647-76.498824-260.216471-77.101176-294.550589 3.011765z"  horiz-adv-x="1024" />

    
    <glyph glyph-name="shewaidouzheng" unicode="&#58928;" d="M486.4 896h64.64C795.84 876.8 1004.48 672 1024 426.56v-81.92c-17.92-244.48-224-451.2-467.84-472.64h-82.24C228.8-110.72 21.44 95.36 0 339.84v82.88C17.92 673.28 234.88 886.08 486.4 896M120.64 539.2c-39.04-125.12-34.88-268.8 40.32-380.16 72.32-119.36 207.36-184 343.04-196.16-1.28 21.12-4.16 63.68-5.44 84.8-39.68 36.8-78.4 74.24-116.48 112.32 1.92 21.76 6.08 65.6 8 87.68-76.8 9.28-133.44 68.16-195.84 108.48-30.72 60.16 4.16 153.6-73.6 183.04z"  horiz-adv-x="1024" />

    
    <glyph glyph-name="xiejiaozuzhianjian" unicode="&#58929;" d="M489.538065 896h45.584516c99.427097-117.264516 260.954839-143.029677 406.296774-143.690323v-416.536774C891.540645 134.606452 754.787097-55.989677 554.941935-128h-69.698064C275.489032-71.845161 140.056774 129.32129 82.580645 328.175484V745.372903C226.931613 760.237419 389.450323 776.423226 489.538065 896m-22.792259-251.705806c-72.670968-9.579355-171.437419 35.674839-213.388387-51.2 70.689032-27.086452 146.332903 19.489032 221.316129-5.615484 99.427097 28.738065 199.845161-13.543226 295.308387 2.972903-40.629677 94.802581-152.609032 40.96-229.574193 54.503226-8.91871 13.873548-26.756129 41.290323-35.674839 55.163871-9.579355-13.873548-28.407742-41.950968-37.987097-55.824516m-227.261935-112.309678c37.326452-8.91871 111.649032-26.095484 148.975484-34.683871-12.882581-14.203871-39.308387-42.611613-52.52129-56.815484 28.407742-7.597419 85.223226-23.122581 113.630967-31.050322-64.743226-4.624516-128.825806-10.570323-193.238709-17.507097l36.005161-34.353548c124.861935 0.330323 248.072258 58.467097 373.264516 17.837419 6.936774-13.543226 20.810323-40.299355 27.416774-53.842581-67.716129 1.981935-136.753548 6.606452-191.587097 50.209033-56.485161-95.463226-194.229677 2.312258-261.615483-78.286452 63.091613-6.276129 126.183226-11.56129 189.274838-15.525161-55.824516-39.63871-118.585806-67.385806-182.998709-90.178065 10.24-9.579355 30.389677-28.738065 40.629677-38.317419 67.716129 28.407742 132.789677 62.430968 192.578065 104.712258 2.642581-23.452903 7.597419-70.689032 10.24-94.141936l33.692903-39.969032 14.534193 137.083871c75.313548-41.950968 157.563871-130.477419 250.384516-82.580645-67.385806 30.059355-131.468387 67.055484-195.220645 104.051613 46.575484 2.972903 140.056774 8.91871 186.962581 12.221935-31.050323 26.425806-63.752258 51.2-95.132903 77.295484l74.32258 11.56129c-57.806452 20.149677-115.943226 39.63871-173.089032 62.100646 54.503226 52.52129 129.156129 67.055484 197.863226 91.829677-107.354839 10.570323-215.700645 8.588387-322.394839 26.095484-73.661935-12.882581-147.984516-19.819355-221.976774-27.747097zM427.107097 490.694194c40.96 25.765161 101.739355 28.738065 143.690322 3.963871 13.873548-68.376774-150.627097-66.725161-143.690322-3.963871z"  horiz-adv-x="1024" />

    
    <glyph glyph-name="jiaoyuzhuanhua" unicode="&#58930;" d="M549.647059 896h71.68c249.976471-16.263529 458.691765-231.303529 474.051765-480.075294l79.209411-6.02353v-18.974117c-37.948235-46.983529-78.908235-91.557647-119.868235-135.830588-44.272941 48.489412-87.341176 97.882353-128.602353 148.48l98.785882 18.070588c-27.105882 222.268235-223.171765 412.310588-452.969411 400.564706-168.96 3.614118-299.369412-114.145882-394.541177-240.338824-73.487059 7.529412-32.527059 78.305882-5.12 110.230588C258.108235 814.08 402.974118 884.254118 549.647059 896zM422.851765 683.068235c39.755294 0.602353 79.811765 1.807059 119.868235 3.011765-9.035294-59.934118 30.418824-174.381176-60.536471-181.007059-90.352941 3.614118-53.308235 118.964706-59.331764 177.995294zM664.094118 622.832941c40.056471 0.602353 80.112941 1.505882 119.868235 3.011765-0.903529-49.995294-2.409412-99.689412-4.818824-149.684706-37.948235 0.301176-75.896471 0.903529-113.844705 2.108235-1.505882 48.188235-1.807059 96.376471-1.204706 144.564706zM0 377.072941c37.948235 47.284706 78.908235 91.557647 120.169412 135.830588 43.971765-48.489412 86.738824-97.882353 128.301176-148.48l-98.785882-18.070588c27.708235-231.303529 241.543529-426.767059 479.472941-399.058823 159.322353 5.12 276.178824 120.771765 367.435294 238.531764 74.992941-9.336471 33.129412-78.004706 4.216471-111.73647-85.534118-120.771765-228.894118-190.042353-374.362353-202.089412h-73.185883c-249.976471 16.263529-458.390588 231.002353-474.051764 479.774118-19.877647 1.807059-59.331765 4.818824-79.209412 6.324706v18.974117zM361.411765 474.654118c68.969412 1.204706 137.637647-0.602353 206.607059-3.915294 11.143529-109.025882 4.216471-218.352941 3.915294-327.68H361.411765c0 70.174118 0 140.348235-0.301177 210.522352l-62.644706 27.708236c21.383529 30.72 41.863529 62.343529 62.945883 93.364706zM636.385882 441.825882c58.729412 1.807059 117.458824 2.710588 176.489412 2.710589 18.070588-34.032941 36.442353-67.764706 55.115294-101.496471-96.677647-14.456471-40.658824-133.12-54.814117-199.981176h-180.705883c0 99.689412-2.108235 199.077647 3.915294 298.767058z"  horiz-adv-x="1174" />

    
    <glyph glyph-name="xiejiaorenyuan" unicode="&#58931;" d="M451.437714 896h75.483429c105.325714-41.837714 112.347429-162.084571 126.976-257.755429 110.884571-90.404571 224.109714-178.468571 326.217143-278.528v-49.737142c-52.077714-10.24-121.124571 6.729143-144.822857-54.710858-45.933714-86.893714-125.805714-144.237714-209.773715-190.464 10.532571-64.073143 21.065143-128.438857 30.72-192.804571h-148.918857l-9.362286 95.085714 55.881143-5.851428-21.650285-44.178286 97.718857-3.510857c-12.288 24.576-37.449143 74.020571-50.029715 98.596571l-44.763428-47.104c-10.532571 20.772571-20.48 41.545143-30.134857 62.902857-11.410286-52.077714-23.698286-103.862857-34.816-155.940571H342.308571c-2.925714 67.291429 6.144 133.997714 15.213715 200.411429-39.789714 15.213714-79.286857 30.427429-119.076572 45.933714-19.017143 47.689143-32.475429 99.181714-64.658285 140.434286-42.422857 15.798857-86.601143 26.038857-129.901715 38.912v73.142857c84.845714 100.644571 202.752 165.010286 292.278857 260.388571 27.209143 92.745143 21.065143 207.725714 115.273143 264.777143m-73.728-139.556571c79.579429-7.899429 159.744-5.558857 239.030857 7.899428-35.108571 33.938286-59.392 85.138286-108.544 101.522286-69.632 11.117714-95.670857-66.121143-130.486857-109.421714M68.754286 336.896c44.470857-8.777143 89.234286-17.261714 134.290285-25.161143A7914.057143 7914.057143 0 0 0 277.942857 418.816c-18.724571-46.518857-38.326857-92.745143-57.636571-138.678857 21.650286-51.492571 43.885714-102.692571 67.291428-153.6 26.038857 40.96 53.540571 81.042286 77.531429 122.88-4.681143-38.619429-9.947429-77.238857-15.506286-116.150857 83.675429 21.942857 169.398857 21.650286 253.366857 3.803428 1.462857 27.794286 4.096 83.090286 5.558857 110.592 8.777143-39.497143 18.139429-78.994286 27.794286-118.491428 58.514286 20.772571 102.107429 64.073143 139.849143 111.762285-10.24 44.178286-20.48 88.649143-30.134857 133.12 11.702857-17.554286 35.401143-52.662857 47.104-70.217142 40.082286 20.48 80.457143 40.374857 122.002286 57.344-100.644571 89.234286-201.581714 178.468571-310.418286 258.048-39.497143-40.96-74.605714-85.723429-105.618286-133.412572-26.624 49.444571-59.392 95.670857-103.277714 131.364572-110.006857-92.452571-229.961143-173.494857-327.094857-280.283429m309.833143-351.670857c-1.462857-19.602286-4.973714-58.514286-6.729143-78.116572 18.724571-0.292571 55.881143-1.170286 74.313143-1.462857 0 20.772571 0.292571 62.317714 0.292571 83.382857-16.969143-1.170286-50.907429-2.925714-67.876571-3.803428zM415.744 447.780571c38.619429-0.585143 77.238857-0.877714 115.858286-1.462857 12.873143-59.684571 20.772571-120.539429 22.820571-181.686857 9.362286 9.362286 27.501714 28.086857 36.571429 37.449143a1396.150857 1396.150857 0 0 0-45.348572 157.110857l53.248-21.357714c-11.702857-49.444571 5.851429-95.085714 27.209143-138.971429-28.086857-30.427429-61.147429-55.003429-98.596571-73.142857l-11.410286 146.578286c-35.108571-48.859429-64.658286-101.522286-22.235429-156.233143-30.134857 21.357714-60.562286 42.422857-90.989714 63.195429 20.772571 20.48 41.252571 40.667429 61.732572 61.147428l-52.370286 9.362286 3.510857 98.011428m23.990857-52.955428c29.842286-30.72 54.125714-29.257143 73.142857 4.388571-29.549714 31.012571-53.833143 29.549714-73.142857-4.388571z"  horiz-adv-x="1024" />

    
    <glyph glyph-name="sheancaiwu" unicode="&#58925;" d="M121.228387 896h617.703226c11.56129-17.837419 35.344516-53.842581 47.236129-71.68 16.516129-147.323871 2.972903-296.299355 5.945806-444.614194-16.185806-0.660645-48.557419-2.312258-65.073548-2.972903-0.660645 148.975484 0.330323 297.950968-1.981935 446.596129-196.211613 3.633548-392.423226 3.633548-588.965162 0-2.312258-282.425806-6.276129-565.181935 2.642581-847.607742 94.472258-4.954839 188.944516-4.954839 283.086451-5.285161 0.330323-16.185806 0.660645-48.557419 0.660646-64.743226-118.916129 14.203871-301.584516-56.815484-356.418065 90.508387V843.47871c45.914839-11.56129 64.412903 5.945806 55.163871 52.52129zM321.734194 645.285161c37.987097-31.710968 74.652903-64.412903 110.658064-97.775484C471.370323 583.184516 508.696774 631.741935 568.154839 624.144516c-36.665806-55.163871-80.268387-105.042581-121.55871-156.572903 27.747097-1.981935 83.24129-5.615484 110.988387-7.267097-4.954839-55.163871-56.154839-52.52129-98.436129-56.815484l-0.330322-42.941935c41.950968-4.954839 91.829677-3.303226 102.4-55.494194-25.765161-1.981935-76.965161-5.615484-102.4-7.597419-0.330323-25.765161-0.660645-77.625806-0.990968-103.390968l-51.530323 1.981936v101.739354c-25.104516 1.32129-74.983226 4.294194-100.087742 5.615484 17.507097 42.28129 50.869677 61.44 100.748387 57.476129l-1.981935 40.299355c-39.969032 6.936774-84.232258 10.900645-106.694194 50.209032l120.567742 19.819355c-36.335484 54.503226-118.255484 97.445161-97.114838 174.08zM572.449032 190.100645c-12.552258 155.581935 178.043871 118.255484 273.83742 101.07871 33.032258-57.145806 60.449032-118.255484 111.649032-162.849032v-71.68c-19.489032-15.525161-58.136774-46.905806-77.625807-62.430968-0.660645-24.113548-2.312258-72.670968-3.303225-96.784516-93.811613-4.294194-201.166452-36.005161-286.389678 11.230967-4.954839 23.783226-14.534194 70.689032-19.158709 94.141936a6177.032258 6177.032258 0 0 1-67.055484 32.04129c-0.660645 36.996129-1.32129 73.992258-1.651613 111.31871 17.507097 10.900645 52.190968 33.032258 69.698064 43.932903m86.214194 36.005161c-12.221935-55.494194-46.245161-100.418065-91.499355-133.450322 47.236129-30.389677 78.616774-75.643871 91.499355-130.477419 46.905806 10.24 94.141935 9.909677 141.047742-0.660646 11.891613 54.833548 41.620645 100.748387 89.187097 130.807742-43.932903 33.362581-77.956129 76.965161-89.187097 132.129033-46.905806-9.909677-94.141935-9.249032-141.047742 1.651612z"  horiz-adv-x="1024" />

    
    <glyph glyph-name="jianxing" unicode="&#58926;" d="M357.158788 896H667.151515v-92.16c103.641212 0.620606 207.282424-1.241212 310.30303-12.722424V-118.690909c-2.172121-2.172121-6.206061-6.826667-8.378181-9.309091H61.129697c-3.723636 2.172121-10.860606 6.826667-14.584242 9.309091V793.6c103.020606 11.481212 206.661818 10.860606 310.30303 9.309091 0 23.272727 0 69.818182 0.310303 93.090909M108.606061 740.848485v-806.787879h806.787878V740.848485H108.606061zM356.848485 550.012121c70.128485 119.77697 265.619394 107.364848 321.473939-19.238788 50.269091-86.574545 6.516364-186.181818-57.095757-251.655757 20.48-62.681212 152.669091-157.633939 44.993939-195.801212-62.060606 61.750303-82.850909 187.42303-190.836364 175.321212-36.615758-59.888485-72.610909-120.707879-118.225454-174.390303-106.744242 37.236364 25.444848 132.809697 45.614545 194.56-71.68 69.197576-109.226667 183.699394-45.924848 271.204848m101.779394-1.551515c-81.299394-38.787879-82.540606-167.873939-2.482424-208.833939 69.818182-44.06303 169.115152 13.653333 171.287272 94.332121 11.791515 86.884848-92.16 159.806061-168.804848 114.501818z"  horiz-adv-x="1024" />

    
    <glyph glyph-name="xianyiren" unicode="&#58927;" d="M206.451613 896h64.082581v-1024H205.790968c1.32129 114.291613 4.624516 228.913548-7.267097 342.874839 16.516129 226.60129 3.963871 454.193548 7.927742 681.125161zM477.646452 896h65.403871c-7.597419-341.223226-0.990968-682.446452-9.579355-1024h-49.87871c2.642581 132.789677 6.276129 265.579355-0.990968 398.03871-15.525161 208.433548 15.525161 417.527742-4.954838 625.96129zM749.501935 896h64.082581v-1024h-64.082581V896zM0 835.550968C15.525161 850.745806 46.575484 880.805161 62.100645 895.669677c3.633548-341.223226 2.972903-682.116129 0.330323-1023.339354-15.525161 14.864516-46.905806 44.263226-62.430968 58.797419V835.550968zM455.845161 443.458065C255.339355 511.174194 256.660645 822.668387 463.772903 879.483871c10.24-145.341935 12.221935-291.674839-7.927742-436.025806zM559.236129 860.655484c215.370323 0.990968 219.664516-396.717419 3.303226-391.101936-8.258065 130.147097-9.579355 260.954839-3.303226 391.101936zM961.569032 895.669677c15.525161-14.534194 46.905806-43.932903 62.430968-58.797419v-904.753548c-15.525161-14.864516-46.575484-44.923871-61.770323-59.788387-4.294194 341.223226-3.303226 682.116129-0.660645 1023.339354zM304.227097 361.538065c51.530323 16.516129 103.060645 32.701935 155.251613 48.227096 16.185806-178.704516 14.534194-358.4 9.909677-537.765161h-66.064516c-25.104516 3.963871-75.313548 11.56129-100.418065 15.194839 0.990968 158.224516-0.330323 316.449032 1.321291 474.343226zM561.218065 397.212903c55.494194 1.981935 106.694194-19.15871 156.903225-39.969032 0.990968-151.618065 0-303.566452 0.660645-455.514839-56.154839-8.588387-112.309677-16.185806-169.125161-22.461935 6.936774 172.75871 1.981935 345.517419 11.561291 517.945806zM94.472258-28.903226c6.606452 90.178065 24.113548 181.016774 74.322581 258.312258 13.873548-100.748387 8.588387-202.487742 8.258064-303.566451-20.810323 11.230968-61.770323 34.023226-82.580645 45.254193zM846.947097 241.300645c48.557419-81.259355 86.544516-172.098065 82.910968-268.88258-21.140645-8.588387-63.752258-26.425806-84.892904-35.344517-1.32129 101.409032-1.32129 202.818065 1.981936 304.227097z"  horiz-adv-x="1024" />

    
    <glyph glyph-name="shoufawen" unicode="&#58921;" d="M407.719542 800.24383c36.086153 5.967002 28.98258 57.681016 64.500447 61.94316 90.641597-6.251145 178.725908 17.901005 267.662647 32.676438-3.693858-94.619598-34.097152-185.545338-38.64344-280.164936-29.835008 23.583864-42.905584 80.412451-84.106309 79.560023-50.577443-103.712172-157.983473-179.578336-276.755221-138.661754l-11.649861 28.414294c114.225461 24.436293 163.666332 135.536181 209.697488 227.598493-129.569179-15.912004-244.647069-110.815746-286.700223-236.97521 21.594863-13.638861 64.78459-40.63244 86.095309-53.987158-100.5866-19.037577-200.889057-36.370296-303.180514-46.031156 15.912004 89.789168 26.709436 180.430765 46.315299 269.651648 25.857007-26.709436 46.031156-58.249302 72.456449-84.390453 47.167728 91.209883 143.20804 199.468342 254.307929 140.366611zM647.820324 516.385036c110.815746 3.125572 221.915634 2.557286 333.015522 0 26.14115-37.222725 29.550865-85.527024 22.447292-129.285037-26.14115-130.705751-44.326298-262.832217-66.489447-394.106253-15.627862-54.839587-34.949581-130.989894-113.373032-119.90832H289.800223c-47.167728 4.546287-141.787326 13.923004-188.955053 18.469291C61.349302 13.452037 52.540871 143.021216 14.74986 265.770965v12.218147c60.806589 42.053155 135.820324 21.594863 204.582915 27.561864 3.409715 35.80201 7.387716 71.60402 12.218146 107.406031 10.797432 7.956002 32.108152 23.868007 42.905583 31.824009 107.121887 8.240145 215.380346 1.420715 322.786377 3.125572 15.343719 23.868007 32.108152 46.883585 50.577443 68.478448m-372.227248-192.364769l26.993579-19.321719c149.743328-2.273143 300.054942 3.978001 449.514127-3.125573 9.945003-6.535288 29.835008-19.890006 39.780011-26.425293 25.857007-109.679174 39.211725-222.48392 73.593021-330.458236 22.163149 138.093467 53.134729 275.334506 67.910162 413.712117-10.797432 4.262144-32.392295 12.786432-42.905584 17.332719-177.873479 0.284143-355.746957 0.284143-533.336293 0-36.654439 0.284143-63.648018-16.764433-81.549023-51.714015z"  horiz-adv-x="1024" />

    
    <glyph glyph-name="bangongyongpin" unicode="&#58922;" d="M375.076571 831.341714C451.437714 916.772571 575.195429 892.489143 676.425143 884.882286c57.636571-18.432 74.020571-77.238857 84.260571-129.609143 110.592-11.410286 236.105143 29.257143 335.579429-32.768 23.990857-145.700571 4.681143-295.204571 9.654857-442.368-154.770286-6.729143-309.540571-18.432-464.603429-21.357714-2.633143 58.806857-8.484571 128.731429-82.797714 132.827428l-72.557714-44.470857c-0.292571-22.235429-0.877714-66.413714-0.877714-88.356571-157.696 2.925714-314.806857 14.921143-472.210286 21.650285 0.585143 127.561143-3.510857 255.122286 0 382.390857-3.803429 44.470857 32.475429 84.260571 76.361143 87.771429 93.037714 10.825143 186.953143 2.633143 280.283428 3.803429 1.462857 19.309714 4.096 57.636571 5.558857 76.946285m54.125715-68.169143c90.404571-5.851429 181.979429-12.580571 271.506285 6.144-62.610286 74.605714-220.013714 85.723429-271.506285-6.144zM12.873143 226.596571c151.552-11.702857 303.689143-15.213714 455.533714-22.528 29.257143-25.161143 45.056-80.749714 90.112-78.994285 48.859429-7.314286 67.291429 50.614857 94.793143 78.701714 151.259429 7.314286 302.518857 11.117714 453.485714 21.942857 0-101.522286-1.462857-202.752 1.755429-304.274286-169.691429-12.288-508.781714-37.156571-678.473143-49.444571h205.970286c-137.508571 3.510857-412.525714 10.24-550.034286 13.458286l-66.706286 46.811428C5.558857 29.696 12.580571 128.585143 12.873143 226.596571z"  horiz-adv-x="1111" />

    
    <glyph glyph-name="cheliang" unicode="&#58923;" d="M292.8 896h15.36c223.36-48 456.32 2.88 682.56-30.72 45.12-105.28 88.32-210.88 125.44-319.36 33.28-19.2 65.92-39.04 99.84-56.96v-415.04c-24.64-0.96-73.92-2.56-98.24-3.2-7.68-69.76 8.32-197.12-98.24-186.24-73.6 32.32-48.96 123.84-59.84 186.88-227.84 1.28-455.68-1.28-683.2 1.92-2.56-71.68-14.72-143.04-59.52-201.28H163.52c-38.08 60.8-49.6 130.56-50.56 200.96-28.16-1.28-84.8-3.52-112.96-4.8V431.04c30.72 76.48 120.96 108.16 145.28 188.48C189.76 713.28 202.24 836.48 308.16 885.44 304.32 888 296.64 893.44 292.8 896m34.24-104.96c-59.2-64-70.4-160-104.64-239.04 262.4 3.2 525.12-8 786.88 5.76-33.92 76.8-65.6 154.56-96 232.96-195.2 6.4-391.04 8.32-586.24 0.32M202.56 436.48c-86.72-53.44-16.96-210.24 83.52-162.56 109.76 47.68 14.72 241.92-83.52 162.56m700.48-53.44c-33.6-78.4 86.08-163.2 139.2-85.76 65.6 57.6 5.12 134.08-49.28 169.6-32.96-23.68-84.16-36.16-89.92-83.84z"  horiz-adv-x="1216" />

    
    <glyph glyph-name="yusuan" unicode="&#58924;" d="M210.066286 860.891429c136.923429 38.034286 284.379429 30.72 417.792-17.554286 57.344-23.698286 116.736-58.806857 141.312-119.076572 20.187429-77.824-48.274286-136.045714-111.469715-164.425142-150.674286-66.706286-327.387429-70.802286-482.450285-18.139429-71.68 24.576-149.504 69.046857-166.765715 149.211429 11.117714 99.181714 116.150857 147.163429 201.581715 169.984m74.605714-40.082286c38.912-60.562286 56.466286-129.024 57.929143-200.704 34.816-2.633143 70.509714-3.510857 98.889143 21.357714l16.676571-8.192c-2.340571 35.108571-4.681143 70.217143-7.314286 105.325714 14.336 19.309714 43.008 58.221714 57.344 77.531429-48.859429-7.606857-82.505143-40.96-112.64-76.653714-30.427429 35.693714-64.950857 67.584-110.884571 81.334857zM432.128 307.053714c55.003429 157.110857 242.541714 173.787429 349.037714 282.038857-9.654857-34.230857-19.602286-68.169143-29.549714-102.107428 147.456 1.462857 259.510857-133.997714 272.384-272.969143v-38.619429c0-188.123429-198.656-336.164571-379.172571-286.72-179.053714 37.449143-287.597714 251.318857-212.699429 418.377143m165.302857-9.069714c16.091429-23.698286 48.566857-71.387429 64.950857-95.085714-9.362286-2.340571-27.794286-6.436571-37.156571-8.777143 2.048-20.187429 5.558857-61.147429 7.314286-81.334857 7.606857 2.925714 22.820571 9.069714 30.72 12.288 26.916571-44.178286 62.025143-39.789714 96.841142-6.436572l14.043429-8.192c-6.436571 67.291429 8.484571 131.657143 40.96 190.756572-38.619429-22.820571-71.387429-53.540571-101.522286-86.308572-31.890286 37.156571-67.291429 70.509714-116.150857 83.090286zM0.292571 591.725714c133.412571-124.928 320.950857-157.403429 497.078858-138.971428-28.086857-30.134857-56.173714-60.269714-84.260572-90.989715C256.585143 376.393143 26.038857 394.532571 0.292571 591.725714zM0.292571 464.749714c110.299429-101.522286 257.462857-139.849143 404.041143-142.774857-9.362286-19.017143-28.379429-57.636571-38.034285-76.653714C222.354286 247.954286 21.065143 292.425143 0.292571 464.749714zM0.292571 343.332571c97.718857-93.622857 228.205714-130.486857 358.985143-146.870857 6.729143-18.724571 19.894857-56.173714 26.331429-75.190857C237.568 128.585143 19.894857 158.427429 0.292571 343.332571zM0.292571 215.478857c106.496-100.352 248.393143-129.609143 387.657143-148.041143 11.702857-18.724571 34.523429-56.173714 45.933715-75.190857-160.914286 3.803429-401.993143 23.698286-433.590858 223.232zM0.292571 93.476571c126.390857-119.076571 301.056-148.041143 468.114286-143.652571 24.576-14.921143 73.728-44.763429 98.304-59.392-161.499429-23.405714-344.356571-32.475429-486.838857 62.317714C28.379429-18.870857 14.043429 41.106286 0.292571 93.476571z"  horiz-adv-x="1024" />

    
    <glyph glyph-name="zhishu-weisheng" unicode="&#58914;" d="M458.627879 896h32.271515c17.687273-48.407273 35.995152-48.407273 54.923636 0h32.581818c72.610909-67.646061 144.601212-136.843636 203.869091-216.591515-42.511515-59.267879-98.055758-107.675152-150.496969-157.944243-0.310303 69.507879-0.310303 139.326061-0.310303 208.83394h-236.761212l-0.93091-210.385455c-47.476364 51.510303-94.642424 103.020606-140.877575 155.461818 67.646061 74.472727 134.050909 150.186667 205.730909 220.625455zM8.688485 386.172121c-11.170909 125.362424 140.877576 180.906667 210.385454 266.860606 53.992727-51.2 107.364848-103.020606 160.116364-155.772121-71.059394-0.620606-142.118788-0.620606-213.178182-0.930909v-232.41697c65.163636-1.241212 130.637576-2.792727 195.801212-4.654545l5.895758 29.789091c7.757576-22.652121 15.515152-45.614545 22.652121-68.57697l-45.614545-12.412121c-7.13697-1.551515-21.721212-5.275152-29.168485-6.826667-31.961212-25.134545-63.612121-50.579394-95.26303-76.334545-68.266667 85.643636-223.418182 136.22303-211.626667 261.275151zM644.809697 497.260606c52.751515 52.441212 105.813333 104.572121 160.116364 155.772121 68.887273-86.574545 226.521212-142.118788 208.213333-269.34303l2.482424-61.750303c-64.232727-71.990303-140.25697-132.189091-211.93697-196.732121-31.340606 25.444848-63.301818 50.579394-95.573333 75.093333-6.826667 2.172121-20.790303 6.206061-27.61697 8.378182-11.170909 3.413333-33.512727 10.24-44.683636 13.963636 2.172121 9.619394 6.826667 29.478788 8.998788 39.408485 71.059394 0.310303 142.118788 0.620606 213.178182 0.620606v233.658182c-71.059394 0.310303-142.118788 0.310303-213.178182 0.930909zM344.746667 208.058182l45.614545 12.412121c4.344242-61.129697 4.654545-122.569697 5.585455-184.009697 77.886061 0.930909 155.772121 1.241212 233.968485 1.551515 0.930909 61.44 0.930909 123.190303 5.895757 184.630303 11.170909-3.723636 33.512727-10.550303 44.683636-13.963636 34.753939-39.098182 70.749091-77.575758 101.779394-120.087273-58.647273-80.058182-131.258182-148.945455-203.558787-216.591515h-31.65091c-24.513939 47.786667-43.442424 47.786667-56.785454 0h-31.030303c-71.369697 69.818182-137.464242 144.290909-204.179394 218.14303 29.789091 39.408485 59.578182 78.81697 89.677576 117.915152z"  horiz-adv-x="1024" />

    
    <glyph glyph-name="zhishu-zhengzhi" unicode="&#58915;" d="M482.986667 896h58.88c145.493333-122.026667 329.386667-183.04 482.133333-293.973333v-90.453334c-341.333333-3.84-682.666667-4.266667-1024 0.853334v81.066666c58.453333 43.093333 120.746667 80.213333 183.893333 116.053334C289.28 762.026667 396.373333 814.933333 482.986667 896M334.08 647.68c119.893333-6.826667 240.64-7.253333 360.533333-1.706667-55.466667 43.093333-117.76 75.946667-180.906666 106.666667-61.013333-32.853333-122.026667-66.56-179.626667-104.96zM115.2 435.626667c14.08 94.293333 159.573333 23.04 227.84 37.546666-48.64-108.8-50.773333-227.413333-45.653333-344.32H171.946667c-3.413333 104.96 24.746667 222.72-56.746667 306.773334zM417.706667 477.013333c73.386667 5.546667 146.773333 1.706667 220.16-2.56-47.786667-112.213333-40.533333-234.24-38.4-353.28-53.76 2.133333-107.52 4.693333-161.28 7.253334 12.373333 117.333333-8.533333 233.386667-20.48 348.586666zM714.666667 477.44c72.533333 7.253333 145.066667 1.28 217.173333-5.12-45.653333-111.786667-38.4-232.96-37.973333-351.146667l-155.733334 5.12c14.08 119.04-13.653333 235.52-23.466666 351.146667zM170.666667 66.133333c233.386667 20.053333 468.48 3.413333 702.72 6.826667 48.213333-50.773333 100.266667-98.133333 150.613333-146.773333v-18.773334c-338.346667-1.28-676.266667-3.413333-1014.613333 1.28 53.76 51.2 93.44 123.733333 161.28 157.44z"  horiz-adv-x="1024" />

    
    <glyph glyph-name="zhishu-ziranzaihai" unicode="&#58916;" d="M475.97037 896h64.094815c137.291852-12.894815 246.897778-114.536296 290.133334-241.967407 93.677037-28.444444 173.321481-95.952593 193.801481-194.93926v-62.198518c-18.962963-183.940741-219.591111-221.866667-370.915556-205.558519l5.688889 45.511111c-32.616296 3.413333-97.09037 10.619259-129.706666 14.032593 21.997037 87.22963 42.477037 175.217778 63.336296 262.826667-57.647407-9.860741-128.568889 7.585185-178.251852-25.410371-31.478519-95.952593-48.545185-195.697778-74.334815-293.167407-141.842963-21.617778-311.751111 29.961481-339.816296 190.008889V448.474074c13.274074 104.675556 97.09037 175.976296 193.422222 204.8C236.278519 778.42963 342.091852 878.174815 475.97037 896zM420.219259 474.642963c38.305185 6.068148 115.674074 17.825185 153.97926 23.893333-19.721481-86.471111-40.580741-172.562963-62.577778-258.654815 30.72-4.93037 92.539259-14.411852 123.259259-19.342222-84.195556-108.847407-151.324444-229.072593-230.58963-341.333333 20.859259 84.574815 42.856296 168.391111 64.474074 252.586667l-129.327407 1.137777c26.927407 114.157037 57.268148 227.176296 80.782222 341.712593z"  horiz-adv-x="1024" />

    
    <glyph glyph-name="zhishu-renkou" unicode="&#58917;" d="M171.52 854.186667c75.52 58.88 167.68 21.333333 227.413333-39.68-133.546667-138.24-131.84-354.986667-34.133333-512.853334-140.373333-17.92-265.386667-80.64-357.546667-189.866666-2.56 90.026667-2.56 180.48-2.56 270.933333 71.253333 23.04 142.08 48.213333 212.053334 76.373333C138.666667 573.44 89.173333 727.466667 171.52 854.186667zM618.666667 815.786667c61.013333 56.746667 151.466667 98.133333 226.133333 37.973333 84.48-124.586667 36.693333-280.32-42.24-393.813333 69.546667-29.013333 140.373333-55.893333 211.626667-80.213334 0.426667-89.6-0.426667-179.2-3.84-269.226666-93.866667 105.813333-216.746667 171.52-356.693334 191.146666 99.84 158.72 95.573333 373.76-34.986666 514.133334zM367.36 637.866667c10.666667 134.4 220.16 160.426667 271.36 40.533333 56.746667-134.826667 8.533333-279.466667-71.68-392.96 87.466667-55.466667 190.72-72.96 284.586667-113.066667 72.533333-62.72 58.453333-174.08 78.506666-259.84-280.32-0.853333-560.64-1.28-840.96 0.426667 14.506667 82.346667 12.8 172.8 58.453334 246.186667 93.44 58.88 212.906667 61.866667 304.213333 127.573333-68.266667 103.253333-123.306667 225.706667-84.48 351.146667z"  horiz-adv-x="1024" />

    
    <glyph glyph-name="zhishu-jingji" unicode="&#58918;" d="M15.11619 896h1482.361905c3.413333-3.900952 10.727619-11.215238 14.140953-15.11619v-995.230477c-3.900952-3.413333-11.215238-10.24-15.116191-13.653333H13.653333c-3.413333 3.900952-10.24 11.215238-13.653333 15.11619V881.859048C3.900952 885.272381 11.215238 892.586667 15.11619 896M156.038095 731.184762c23.405714-31.695238 23.405714-31.695238 0 0m1173.699048-4.388572c32.670476-22.918095 32.670476-22.918095 0 0m-688.030476-41.447619c-233.081905-85.333333-268.678095-439.832381-59.489524-571.977142 171.154286-130.194286 440.807619-14.140952 477.866667 193.097142 71.68 233.569524-189.19619 483.230476-418.377143 378.88M109.226667 97.28l9.752381-104.838095 102.4-5.851429c62.415238 62.415238-50.712381 183.344762-112.152381 110.689524m1180.038095-109.714286c25.84381 1.462857 76.55619 3.900952 101.912381 5.36381 2.438095 26.331429 7.801905 78.994286 10.24 105.325714-59.977143 77.04381-173.104762-49.249524-112.152381-110.689524zM585.142857 589.287619c100.937143 26.819048 123.855238-89.721905 171.641905-151.161905 31.207619 54.613333 61.927619 109.226667 93.135238 163.352381l68.754286-27.306666c-26.331429-46.32381-51.2-93.622857-77.04381-139.946667 22.430476-19.017143 67.779048-57.539048 90.209524-77.04381-55.588571-6.826667-111.177143-11.702857-167.253333-15.11619 40.96-18.041905 122.88-53.638095 164.327619-71.192381l-133.607619-19.504762c-4.87619-32.182857-14.628571-96.548571-19.504762-129.219048-18.529524 30.72-56.07619 92.16-74.605715 122.88-30.232381 6.826667-91.184762 19.504762-121.417142 26.331429 48.761905 41.935238 105.325714 66.80381 169.203809 74.118095-43.398095 2.438095-129.706667 8.289524-172.617143 10.727619 30.232381 27.306667 60.952381 54.125714 91.184762 80.944762-28.769524 49.737143-55.100952 100.937143-82.407619 152.137143z"  horiz-adv-x="1511" />

    
    <glyph glyph-name="zhishu-shehui" unicode="&#58919;" d="M59.213913 836.786087C76.577391 849.697391 111.749565 875.52 129.558261 888.431304c59.213913-185.210435-28.048696-431.415652 143.805217-565.871304a319.666087 319.666087 0 0 1 142.914783-63.22087c-15.137391 122.434783-188.772174 169.627826-173.634783 288.946087 134.90087 0 232.848696-117.982609 340.146087-186.100869 8.45913-158.052174 13.356522-316.104348 8.459131-474.156522-98.838261 10.685217-197.676522 21.370435-296.069566 32.50087-44.966957 165.175652-166.511304 287.610435-251.547826 430.08-21.370435 159.387826-23.151304 329.46087 15.582609 486.177391zM1105.92 418.281739c49.864348 155.38087-4.897391 336.584348 95.721739 477.273044 93.050435-162.949565 62.330435-362.406957 52.98087-541.384348-85.481739-144.695652-208.806957-267.575652-255.109566-434.086957-98.838261-11.130435-197.676522-21.370435-296.514782-32.055652 2.226087 156.716522-12.02087 315.213913 17.808696 470.149565 85.481739 98.838261 210.142609 148.702609 319.220869 215.485218 56.542609-134.455652-139.798261-186.546087-166.066087-309.426087 100.173913 4.452174 182.093913 72.125217 231.958261 154.045217z"  horiz-adv-x="1291" />

    
    <glyph glyph-name="zhishu-huanjing" unicode="&#58920;" d="M523.264 896h39.594667c57.685333-90.794667 139.264-162.816 208.213333-244.736-48.810667-0.682667-97.28-1.024-146.090667-1.365333 63.146667-67.925333 125.610667-136.192 187.392-205.141334-34.133333 1.024-103.082667 2.730667-137.557333 3.413334 8.533333-13.312 25.6-40.277333 34.133333-53.589334-159.402667-83.968-228.010667-280.917333-140.970666-442.368-175.445333 4.778667-350.890667 2.389333-525.994667 2.048-0.682667 18.773333-2.048 56.661333-2.389333 75.434667 65.877333 2.048 140.288-1.024 133.802666 88.405333-57.685333 0.682667-115.712 0.341333-173.397333-0.682666v15.36c59.050667 43.008 111.274667 94.208 162.474667 146.090666-30.378667 1.365333-91.477333 4.437333-121.856 5.802667 39.936 38.229333 80.213333 76.458667 120.490666 114.346667-17.408 2.389333-51.882667 6.826667-69.290666 9.216 31.061333 35.84 62.464 71.68 93.525333 107.52 13.994667-2.048 41.642667-6.485333 55.296-8.874667 16.042667-21.162667 47.786667-63.488 63.488-84.992-12.629333-8.192-38.229333-24.576-51.2-32.768 23.210667-20.821333 46.08-41.642667 69.290667-62.464 35.84 37.888 72.021333 75.434667 108.544 112.64-47.786667 9.216-95.232 18.432-142.336 30.72 68.608 52.906667 128.682667 115.370667 185.344 180.565333-35.498667 0-106.154667 0-141.653334 0.341334C390.485333 729.770667 467.626667 793.6 522.24 875.178667l1.024 20.821333M285.013333 239.616c40.618667-40.277333 80.896-80.554667 121.514667-121.173333h-163.84v-83.626667h246.784c-0.682667 69.290667-1.706667 138.581333-3.754667 207.872-66.901333-1.365333-133.802667-2.048-200.704-3.072zM638.976 311.296c36.864 19.456 73.386667 38.912 110.250667 58.368 16.725333-21.162667 50.176-63.146667 66.901333-84.309333 16.725333 21.504 50.517333 64.853333 67.584 86.357333 35.157333-21.504 70.314667-43.349333 105.472-64.853333-13.994667-33.109333-27.989333-66.218667-41.984-99.669334l110.933333-29.696v-114.346666c-26.282667-8.192-79.189333-24.917333-105.472-33.109334 9.216-25.6 27.306667-76.8 36.181334-102.4-27.989333-13.653333-84.309333-41.301333-112.298667-55.296l-58.709333 80.554667c-22.186667-26.965333-44.714667-53.930667-66.901334-80.896h-16.384c-29.696 18.090667-59.050667 36.522667-88.064 55.637333 4.437333 21.504 13.653333 64.853333 18.432 86.357334-73.386667 29.013333-104.789333 86.698667-99.669333 164.181333 37.888 9.557333 75.776 18.773333 113.664 28.330667-13.653333 34.816-26.624 69.632-39.936 104.789333m114.005333-136.192c-73.728-74.410667 47.786667-194.56 119.125334-116.394667 80.213333 72.362667-47.445333 197.632-119.125334 116.394667z"  horiz-adv-x="1058" />

    
    <glyph glyph-name="shandian" unicode="&#58913;" d="M301.056 448.853333c233.130667 133.12 457.728 280.576 694.613333 406.869334-114.005333-133.461333-216.405333-276.48-329.728-410.624 94.549333-57.685333 186.709333-119.466667 275.114667-186.368-235.178667-119.808-473.088-234.154667-706.218667-358.058667 103.082667 127.317333 219.477333 242.688 327.68 365.226667-84.992 64.170667-171.690667 125.610667-261.461333 182.954666zM0 411.989333c129.024 86.357333 258.389333 173.056 393.557333 249.856-56.661333-87.04-121.173333-168.618667-185.002666-250.538666 60.416-46.08 121.173333-91.477333 180.565333-138.24-124.586667-91.136-259.072-167.253333-389.12-250.197334v17.408c56.661333 79.189333 117.418667 154.624 176.469333 232.106667-60.074667 40.96-119.125333 83.968-176.469333 129.024v10.581333m215.381333 84.650667c19.456 19.797333 19.456 19.797333 0 0m-167.253333-94.890667c62.805333-51.2 214.016-103.765333 111.957333-204.458666l1.365334-21.162667 3.754666-15.701333c58.709333 37.546667 117.077333 75.434667 175.445334 114.005333-59.050667 41.984-119.466667 82.944-172.032 133.461333 15.018667 19.114667 45.056 56.661333 60.074666 75.776l-13.312 12.970667-15.36 15.018667c-51.2-36.181333-101.034667-73.386667-151.893333-109.909334m113.322667-225.621333c-11.946667-13.312-11.946667-13.312 0 0z"  horiz-adv-x="1024" />

    
    <glyph glyph-name="wendingzhishufenxi" unicode="&#58909;" d="M466.066286 896h85.138285C799.012571 878.445714 1009.956571 665.746286 1024 417.645714v-69.924571c-15.798857-245.174857-222.354286-453.778286-466.358857-475.721143h-83.090286C229.961143-111.616 22.235429 94.646857 0 338.066286v84.553143C17.261714 666.916571 222.939429 873.472 466.066286 896m-104.448-107.081143C162.377143 717.824 35.693714 487.277714 92.16 281.307429c50.614857-224.694857 300.763429-379.757714 523.995429-316.854858 223.817143 51.492571 378.294857 300.470857 315.392 523.702858C877.421714 729.526857 592.749714 884.589714 361.618286 788.918857zM527.213714 474.404571c-59.684571 101.229714 122.294857 91.867429 181.101715 116.150858 60.562286-48.566857 54.418286-145.408 77.531428-216.502858-54.710857-36.571429-88.941714 16.676571-103.570286 64.658286-45.933714-76.068571-96.841143-149.211429-152.429714-218.843428-37.741714 19.894857-75.190857 40.667429-112.347428 61.147428-31.597714-40.96-64.365714-81.042286-95.670858-122.294857-16.384 8.484571-48.859429 25.161143-65.243428 33.353143 43.008 69.924571 90.697143 138.093714 152.429714 193.097143 31.890286-21.357714 63.488-42.715429 95.378286-64.073143 40.96 58.221714 81.92 116.150857 124.635428 173.202286l-101.814857-19.894858z"  horiz-adv-x="1024" />

    
    <glyph glyph-name="wendingzhishuzhuantifenxi" unicode="&#58910;" d="M89.05697 896h1031.447272c22.962424-36.615758 53.992727-67.025455 89.677576-90.918788v-646.671515c-24.824242-40.96-56.164848-84.402424-108.60606-88.746667-153.910303-24.824242-311.233939-6.206061-466.385455-11.170909v-126.603636c111.709091 0.310303 223.728485 0 335.747879-0.310303l4.964848-59.578182H225.900606l3.723636 59.888485c115.122424 0 230.244848 0.310303 345.367273 0V58.181818c-151.427879 2.172121-303.166061-5.275152-454.593939 2.792727C61.750303 57.250909 31.030303 112.484848 0 152.203636V813.149091C43.752727 820.596364 65.473939 863.418182 89.05697 896m38.787878-98.366061c-7.13697-7.757576-22.031515-23.58303-29.168484-31.650909-12.412121-203.248485-4.654545-407.738182-2.792728-611.296969 327.990303-2.792727 657.532121-11.170909 985.212122 3.413333 48.717576 58.957576 33.82303 139.326061 36.615757 209.454545-4.344242 132.499394 7.757576 265.929697-7.13697 397.808485-58.33697 52.130909-140.567273 34.753939-211.626666 38.167273-256.930909-4.964848-514.482424 7.13697-771.103031-5.895758zM886.846061 691.510303c65.163636 5.585455 127.224242-15.825455 187.733333-35.995151-16.446061-50.269091-32.271515-101.158788-53.372121-149.876364-13.34303 14.584242-40.339394 44.06303-53.992728 58.647273-51.2-27.927273-107.675152-74.472727-151.738181-8.067879-53.992727-11.481212-115.74303-60.819394-164.460606-6.206061 60.198788 31.650909 123.190303 57.406061 186.492121 82.230303 33.512727-38.477576 77.265455-35.684848 121.328485-17.687272l-71.990303 76.955151zM233.968485 624.484848c107.985455 54.30303 249.173333-42.201212 235.830303-162.90909-3.413333-130.637576-177.18303-202.938182-273.687273-116.363637-95.573333 71.059394-72.921212 236.140606 37.85697 279.272727m-2.482424-80.678787c-96.193939-85.02303 50.579394-232.106667 138.705454-144.601213 103.020606 84.402424-49.338182 243.898182-138.705454 144.601213zM1025.551515 282.220606c-106.744242 16.756364-54.923636 159.806061-32.892121 228.38303 45.304242-68.57697 31.961212-151.117576 32.892121-228.38303zM680.804848 434.889697c80.368485-4.344242 61.44-80.368485 59.267879-136.22303-94.021818-39.718788-47.786667 84.402424-59.267879 136.22303zM872.261818 268.25697c-67.335758 38.787879-70.749091 143.980606 2.172121 179.044848 5.895758-59.578182 5.585455-119.77697-2.172121-179.044848z"  horiz-adv-x="1210" />

    
    <glyph glyph-name="beijingshiwendingzhishufenxi" unicode="&#58911;" d="M655.713103 896h347.806897l4.590345-16.595862 15.889655 1.05931v-344.982069c-123.93931-54.377931-89.688276 110.521379-99.928276 180.435862-104.165517-108.049655-210.096552-214.686897-322.030345-314.615172-84.744828 73.092414-166.664828 149.362759-248.231724 225.986207C238.697931 540.071724 152.893793 394.593103 0 373.76v75.564138c112.286897 111.58069 236.226207 210.802759 356.634483 313.555862 83.685517-72.033103 163.486897-148.303448 242.582069-225.28 84.391724 86.510345 168.783448 172.667586 254.587586 257.765517-73.445517 10.593103-232.695172-26.482759-198.091035 100.634483zM807.90069 511.470345l45.550344 13.771034 40.253794-19.067586c12.711724-208.684138 15.183448-420.546207-2.824828-628.877241-20.48 1.412414-61.44 4.590345-81.92 6.355862-19.067586 207.271724-18.361379 419.84-1.05931 627.817931zM318.852414 370.935172c-13.417931 59.674483 91.453793 102.753103 92.513103 24.717242 15.183448-173.373793 17.655172-350.984828-7.415172-523.652414H327.326897c-14.124138 165.958621-18.008276 332.976552-8.474483 498.935172zM74.504828 279.128276c30.72-6.708966 66.030345-2.118621 92.513103-22.598621 19.067586-127.470345 8.474483-257.05931-3.884138-384.529655H86.510345c-25.423448 134.17931-16.595862 271.536552-12.005517 407.128276zM558.609655 222.631724c-18.714483 79.448276 105.577931 60.733793 95.337931-2.471724 9.18069-115.817931 1.765517-232.342069-5.649655-348.16h-74.857931c-27.188966 114.758621-25.070345 234.107586-14.830345 350.631724z"  horiz-adv-x="1024" />

    
    <glyph glyph-name="wendingzhishuyujing" unicode="&#58912;" d="M527.058824 896h59.030588c11.143529-65.957647 11.745882-132.517647 11.745882-199.077647-20.48 0-61.44 0.301176-81.92 0.301176 0.903529 66.258824 3.915294 132.818824 11.14353 198.776471zM153.298824 685.477647c-5.421176 39.152941 11.745882 59.030588 51.2 59.331765 46.381176-36.442353 85.835294-80.414118 127.09647-122.277647l-59.331765-57.524706c-40.658824 39.152941-83.727059 76.197647-118.964705 120.470588zM791.491765 621.025882C843.294118 658.070588 878.531765 749.628235 952.018824 735.171765c35.84-77.402353-70.776471-118.061176-107.218824-172.875294-13.251765 14.757647-39.755294 43.971765-53.308235 58.729411zM335.510588 559.585882c148.48 168.96 470.738824 102.098824 526.155294-119.868235 25.298824-154.804706 6.023529-312.922353 11.745883-469.232941 55.115294-14.155294 142.155294-18.371765 106.315294-98.484706H140.047059c-52.103529 81.016471 47.284706 80.112941 100.592941 96.376471 17.769412 195.764706-56.32 432.489412 94.870588 591.209411m17.167059-130.108235c-42.164706-151.190588-12.649412-312.018824-21.383529-467.124706h451.764706c-6.023529 149.383529 14.155294 301.477647-14.155295 449.054118-54.211765 183.416471-345.449412 195.162353-416.225882 18.070588zM414.72 259.312941c62.945882 50.597647 106.014118 137.035294 190.343529 154.50353 26.804706-49.392941 13.854118-90.955294-38.851764-124.988236 43.369412-9.336471 136.131765 20.48 134.023529-53.007059-37.345882-81.618824-111.736471-149.684706-192.150588-190.042352-6.324706 16.564706-19.275294 49.091765-25.6 65.65647 27.407059 32.225882 55.717647 63.548235 83.425882 95.472941-55.416471 4.517647-124.687059-10.541176-151.190588 52.404706zM0 365.327059c59.030588 14.757647 120.169412 17.468235 180.705882 20.48v-94.870588c-60.536471 3.915294-120.771765 8.131765-180.705882 16.564705v57.825883zM933.647059 386.409412c60.536471-4.216471 120.771765-9.336471 180.705882-18.070588v-57.825883c-59.030588-14.456471-120.169412-16.564706-180.705882-19.275294v95.171765z"  horiz-adv-x="1114" />

    
    <glyph glyph-name="yuanejianchaguan" unicode="&#58890;" d="M474.168889 896h60.871111c116.906667-15.36 222.72-107.235556 233.528889-228.124444 15.928889-89.315556-34.133333-169.813333-88.177778-235.804445 60.586667-4.551111 153.315556 16.497778 176.924445-60.302222 47.502222-128 93.297778-257.137778 133.404444-387.697778 21.333333-48.64-29.582222-84.195556-60.302222-112.071111H95.004444c-32.142222 27.306667-83.342222 62.862222-61.44 112.071111 39.537778 130.844444 85.617778 260.266667 133.688889 388.266667 22.755556 74.808889 113.493333 55.182222 172.657778 60.302222-54.613333 65.137778-104.106667 145.92-88.177778 234.951111C261.973333 785.066667 362.382222 873.813333 474.168889 896m-48.64-75.377778c-130.56-51.768889-160.426667-244.337778-52.622222-334.222222 111.217778-110.933333 326.826667-34.417778 339.626666 123.733333 27.022222 151.608889-150.755556 280.746667-287.004444 210.488889M226.133333 372.337778c-49.777778-140.515556-97.564444-281.884444-147.626666-422.4 12.231111-4.551111 36.977778-13.937778 49.493333-18.488889 208.213333-6.826667 416.995556 0 625.493333-3.128889 64.284444 1.991111 132.551111-9.386667 192 21.617778-50.062222 140.515556-97.848889 281.884444-147.626666 422.4-52.906667 1.706667-105.813333 2.275556-158.72 2.844444-24.746667-98.417778-50.346667-196.835556-75.946667-295.253333-7.111111 95.857778-34.986667 195.413333 4.266667 288.142222-40.106667 2.56-80.213333 3.128889-120.035556-2.56 43.804444-94.151111 10.524444-196.835556 4.551111-294.968889L372.622222 375.182222c-48.64-0.853333-97.564444-1.137778-146.488889-2.844444z"  horiz-adv-x="1024" />

    
    <glyph glyph-name="yuanefaguan" unicode="&#58892;" d="M283.209143 721.92C329.435429 880.786286 557.056 932.571429 678.765714 829.878857c110.006857-149.796571 39.789714-368.932571-75.776-496.493714 95.963429-49.152 210.066286-67.584 293.156572-138.386286 38.034286-68.461714 33.060571-151.552 49.737143-226.157714-15.506286 4.096-46.518857 12.873143-62.317715 17.261714 6.144 63.195429 9.654857 139.849143-35.108571 190.756572-43.008 26.624-90.989714 44.470857-137.216 65.243428-39.497143-108.544-127.561143-188.416-202.166857-273.261714-70.802286 86.016-158.866286 163.84-196.900572 271.506286-50.614857-24.868571-113.225143-35.986286-152.137143-79.286858-27.794286-63.488-22.235429-135.753143-29.257142-203.044571-15.798857 23.990857-31.305143 47.981714-46.811429 71.972571 19.894857 64.073143 7.606857 155.062857 76.653714 191.634286 83.675429 44.470857 174.665143 73.435429 261.266286 111.469714-98.889143 101.522286-137.801143 249.856-138.678857 388.827429m214.747428-349.915429c-25.161143-35.986286-45.933714-74.605714-67.584-112.932571 14.628571-33.060571 29.257143-66.413714 45.933715-98.889143l-21.650286 71.972572c61.732571 43.300571 141.312 0.292571 99.766857-78.701715 11.995429 36.278857 24.576 71.972571 37.741714 107.958857-20.772571 37.449143-41.252571 74.898286-65.828571 110.006858 136.923429 7.021714 147.748571 194.267429 88.064 287.012571-74.605714-17.554286-151.844571-19.602286-225.28 5.266286-23.405714-99.766857-33.353143-286.427429 108.836571-291.693715zM217.965714-65.974857c10.24 41.837714 21.650286 84.845714 60.854857 109.421714 0.292571-27.794286 0.877714-83.968 1.462858-111.762286 159.158857 1.170286 318.610286 1.462857 478.061714-0.292571 2.925714 33.353143 6.729143 66.413714 11.702857 99.474286 53.540571-0.292571 26.038857-88.649143 71.68-91.867429 36.278857-2.633143 72.850286-5.266286 109.129143-8.777143V-128H73.142857v61.44c48.274286 4.973714 96.548571 1.170286 144.822857 0.585143z"  horiz-adv-x="1024" />

    
    <glyph glyph-name="fayuangongzuo" unicode="&#58902;" d="M516.033939 896h25.444849c152.979394-126.603636 335.437576-221.246061 469.488485-368.019394-44.06303-49.958788-89.367273-98.986667-126.603637-154.530909l-21.410909 102.089697c-62.370909-0.930909-124.741818 0.620606-187.112727 4.033939-0.930909-42.511515-2.792727-85.333333-5.585455-127.844848 140.567273 81.92 331.093333-14.584242 363.054546-168.494546 21.410909-75.713939-18.307879-148.635152-40.339394-218.763636-17.066667 25.134545-33.82303 50.269091-50.579394 75.403636-76.644848 0.930909-153.910303-1.241212-227.762424-23.58303 66.094545-41.270303 145.221818-31.961212 219.384242-29.168485l41.580606-56.475151c-99.917576-35.064242-214.419394-85.333333-315.578182-25.134546-163.84 71.990303-188.974545 336.989091-24.513939 422.632728-7.13697 52.130909-16.756364 103.641212-33.202424 153.6-62.060606-4.654545-124.431515-7.13697-186.802424-7.13697 34.753939-178.424242 9.619394-361.192727 17.997575-541.478788 48.407273-4.964848 89.677576-28.858182 125.362425-61.129697H18.307879l3.10303 49.027879c36.926061 2.482424 73.852121 4.344242 110.778182 6.516363-6.826667 163.529697 0.310303 327.059394-1.551515 490.899394-12.101818 57.716364-133.12 94.952727-57.095758 149.566061C216.901818 682.511515 367.709091 787.704242 516.033939 896M139.946667 536.979394c257.241212-1.861818 514.482424-1.241212 772.033939-0.310303-119.466667 108.916364-257.241212 194.870303-384.775758 293.236364-129.396364-97.435152-265.929697-185.561212-387.258181-292.926061m52.130909-610.676364c59.267879-1.861818 118.846061-2.172121 178.424242-1.861818 11.481212 183.699394-25.134545 372.984242 23.58303 552.649697-70.438788-3.413333-140.877576-4.033939-211.00606 0 19.238788-182.768485 8.067879-367.398788 8.998788-550.787879m479.107879 310.923637l44.683636-52.130909c-43.752727-54.923636-100.538182-96.193939-155.772121-138.705455 71.369697-84.402424 122.88 78.506667 183.699394 111.709091 42.821818-72.610909 96.193939-13.963636 126.913939 31.650909-47.476364 29.478788-87.505455 68.57697-117.915151 115.432727-27.306667-22.652121-54.30303-45.304242-81.609697-67.956363zM528.446061 769.086061c-0.310303-47.786667 54.30303-54.30303 85.953939-75.403637-17.37697-33.82303-31.030303-69.507879-33.512727-108.295757-34.443636 3.723636-68.887273 6.516364-103.641212 8.998788-11.170909 33.512727-22.962424 67.025455-35.374546 100.227878 40.029091 10.860606 69.197576 35.684848 86.574546 74.472728z"  horiz-adv-x="1055" />

    
    <glyph glyph-name="jianchayuangongzuo" unicode="&#58903;" d="M242.346667 896h730.763636c9.929697-84.402424 9.619394-169.425455 10.24-254.448485 55.854545-5.275152 112.329697-7.13697 166.94303-19.859394 14.584242-209.454545-1.861818-420.150303 6.206061-629.915151 0.310303-42.201212 18.618182-80.678788 32.271515-119.77697H17.37697c17.687273 38.167273 44.683636 75.403636 42.201212 119.77697 4.033939 211.93697-1.861818 424.184242 1.551515 636.121212 59.267879 4.344242 118.225455 7.447273 177.493333 9.929697 0.310303 86.264242 1.241212 172.218182 3.723637 258.172121m49.958788-970.317576c212.247273 0.310303 424.494545 0 636.741818 0.310303V844.179394H292.305455c-0.310303-305.958788-0.620606-612.227879 0-918.49697m-177.803637 654.739394c-2.792727-217.522424-0.620606-435.044848-1.241212-652.567273h123.810909c0 90.608485-1.551515 181.527273 6.206061 271.825455-23.893333 9.309091-71.990303 27.927273-95.883637 36.926061 41.270303 28.858182 76.644848 63.612121 105.813334 104.261818-32.581818 45.924848-81.92 71.059394-128.465455 100.227879 38.477576 12.412121 77.886061 16.135758 118.225455 11.170909-2.482424 32.892121-6.826667 98.366061-9.309091 131.258181-29.789091-0.930909-89.367273-2.482424-119.156364-3.10303m862.021818 1.241212c-1.861818-40.029091 5.895758-77.575758 23.272728-112.64 16.756364-4.964848 49.958788-15.204848 66.715151-20.169697-9.309091-32.892121-31.961212-49.338182-67.956363-49.648485-6.206061-33.202424-18.307879-98.986667-24.203637-132.18909 35.064242 1.241212 70.128485 2.172121 105.192727 2.482424-13.032727-49.648485-25.134545-123.190303-65.163636-27.927273-53.061818-95.883636-26.996364-208.523636-32.271515-313.095757 30.099394-0.310303 89.677576-0.930909 119.466667-1.551516 1.551515 217.522424 1.241212 435.044848 0.310303 652.25697-41.890909 1.241212-83.781818 2.172121-125.362425 2.482424zM503.932121 717.265455c42.821818 14.584242 78.506667 41.270303 103.330909 79.127272 23.272727-37.85697 56.475152-65.163636 99.607273-77.88606-22.652121-39.408485-38.167273-81.92-34.753939-128.155152-43.132121 14.894545-87.195152 18.618182-130.637576 2.482424 6.516364 46.855758-11.481212 87.505455-37.546667 124.431516zM536.203636 544.73697c69.197576 59.267879 189.284848 8.998788 195.801212-82.540606 14.894545-90.298182-90.608485-167.873939-172.218181-125.052122-82.540606 32.581818-97.124848 157.013333-23.583031 207.592728zM687.010909 239.398788c-55.233939 42.201212 62.681212 58.33697 94.642424 54.613333 31.340606-89.367273 62.681212-178.734545 90.608485-269.34303-173.769697-2.482424-347.539394-2.482424-521.309091-0.310303 26.996364 89.05697 57.716364 176.872727 88.126061 264.688485 22.031515 0 66.094545 0.620606 88.12606 0.620606 15.825455-59.267879 32.271515-118.225455 50.269091-176.872727 4.964848 58.957576 6.826667 118.225455 6.826667 177.493333l52.130909 0.930909c-1.861818-53.682424-2.172121-107.364848-3.413333-161.047273 13.653333 11.791515 41.580606 35.684848 55.544242 47.476364 40.339394 15.204848 131.258182 21.100606 51.510303 61.750303h-53.061818z"  horiz-adv-x="1210" />

    
    <glyph glyph-name="lituixiuganbu" unicode="&#58904;" d="M75.294118 736.376471C148.48 780.649412 211.425882 842.992941 288.225882 879.736471c89.750588-4.517647 191.849412-17.769412 260.818824-79.811765 43.068235-80.112941 80.112941-164.743529 103.604706-252.988235 182.211765-133.722353 292.743529-352.075294 296.05647-577.957647v-81.317648c-188.536471-3.011765-377.072941-1.204706-565.609411-1.505882 0.301176 59.632941 0.903529 119.265882 1.505882 178.898824a2842.202353 2842.202353 0 0 0-134.023529 25.6c1.204706-66.861176 2.409412-133.722353 2.409411-200.58353-46.08 0-92.16 0.301176-138.541176 0 1.505882 97.882353-8.734118 196.969412 7.830588 293.948236 15.661176 81.016471 110.531765 81.92 170.465882 111.435294 52.705882 34.334118 93.665882 83.124706 140.649412 124.084706-67.162353-1.807059-143.661176-12.348235-198.174117 36.442352-62.042353 42.465882-71.68 121.072941-82.221177 189.44C127.096471 658.672941 101.195294 671.924706 75.294118 684.574118V736.376471m62.644706-21.985883C290.334118 682.164706 438.814118 633.976471 590.004706 596.329412c-12.649412 10.24-37.647059 30.72-50.296471 40.658823-9.938824 41.562353-17.167059 83.425882-31.924706 123.482353C446.042353 805.647059 364.423529 808.056471 292.141176 824.922353 248.470588 778.24 204.498824 726.437647 137.938824 714.390588m73.788235-80.715294c11.444706-63.849412 36.442353-137.938824 108.122353-153.901176 70.174118-23.190588 130.409412 26.503529 172.272941 76.498823-92.461176 29.214118-186.127059 54.814118-280.395294 77.402353m381.590588-133.12c-96.376471-103.303529-209.618824-192.451765-292.743529-307.501176 3.312941-20.178824 9.336471-60.235294 12.348235-80.112942 43.670588 44.272941 85.835294 89.750588 130.710588 132.818824 0.301176-99.087059 0.301176-198.174118 0-297.261176 148.48 0 296.96-0.602353 445.138824 0.301176-4.818824 214.738824-97.581176 446.343529-295.454118 551.755294M177.995294-71.378824c12.348235 107.218824-8.734118 228.291765 72.282353 313.825883-106.616471-66.56-83.727059-207.209412-72.282353-313.825883z"  horiz-adv-x="1024" />

    
    <glyph glyph-name="sifagongzuo" unicode="&#58906;" d="M490.24 896h45.12c101.44-139.84 312.96-88.64 427.2-192.96C1004.8 379.52 865.28-15.04 531.84-128h-21.12c-121.28 34.56-232 105.6-304.32 209.92C69.76 264.64 48.32 502.08 48.32 722.88 202.24 754.88 376 777.6 490.24 896M94.08 681.28C96.96 384 192.32 15.36 512.64-82.88c91.2 35.52 181.44 82.56 242.88 161.28 137.92 167.36 168.32 392.96 177.92 602.56-146.88 28.48-291.2 74.88-420.16 152-128-78.08-272.32-123.84-419.2-151.68zM335.04 428.8c-37.44 104 40.96 197.44 128 242.56 7.68-31.68 5.12-62.4-7.36-92.48 46.08-14.4 117.12-6.4 128.64-66.88 30.08-75.2-68.48-144.96-129.92-94.08-31.36 48.32-32.96 110.08-69.12 156.48-54.08-106.56 28.16-267.84 157.44-227.2 128 35.2 120.96 217.6 11.2 274.56l-6.72-49.92c-6.4 26.56-19.2 79.36-25.6 105.6 130.24-28.8 212.8-189.12 130.24-301.44-61.12-120.96-328.96-30.4-226.88-245.76 20.16 18.24 60.16 55.04 80.32 73.28l82.24-73.28c-0.32 50.24-0.32 100.48-0.64 150.4 14.08 1.28 42.56 4.16 56.64 5.44 0.32-85.44 0.32-170.56-0.32-256-44.48 36.16-88.96 72.64-133.44 108.8-44.8-36.48-89.6-72.96-135.04-108.8-0.32 77.12-0.64 153.92 0 230.72 76.8 50.88-24.64 110.72-39.68 168z"  horiz-adv-x="1024" />

    
    <glyph glyph-name="gongangongzuo" unicode="&#58907;" d="M492.140606 896h39.408485c117.915152-57.716364 299.132121-56.164848 335.127273-208.833939 22.341818-4.344242 67.025455-13.653333 89.056969-18.307879C1003.830303 352.659394 862.021818-13.498182 543.650909-128h-63.301818C162.288485-13.187879 19.549091 352.969697 68.266667 669.478788c22.652121 4.344242 67.335758 13.34303 89.677575 17.687273 34.133333 152.669091 217.212121 151.738182 334.196364 208.833939M256 731.229091c-19.549091-62.060606-60.509091-111.709091-124.741818-130.01697C104.572121 326.904242 243.277576 30.875152 512-68.111515c267.791515 99.917576 404.014545 393.153939 381.052121 667.151515-63.922424 20.48-105.50303 70.128485-126.603636 132.499394-84.402424 35.064242-170.666667 65.784242-256.620606 97.124848-85.02303-31.650909-170.356364-62.370909-253.827879-97.435151zM414.564848 528.601212c38.477576 46.235152 43.442424 155.151515 115.743031 149.566061 30.409697-48.09697 54.923636-99.29697 80.678788-149.876364 62.991515-4.654545 128.775758-8.378182 182.458181-45.924848-42.201212-42.821818-85.02303-84.402424-127.844848-126.603637 9.929697-64.54303 15.204848-130.01697 16.135758-195.490909-57.095758 26.686061-113.260606 54.30303-169.735758 81.92-56.475152-30.409697-113.260606-61.750303-177.493333-71.990303 6.826667 62.060606 16.446061 123.810909 25.134545 185.871515-43.442424 41.890909-86.264242 84.092121-128.465454 126.91394 54.30303 37.236364 120.397576 40.339394 183.38909 45.614545m-72.300606-72.300606c72.300606-48.407273 94.332121-120.087273 66.404849-203.558788l104.261818 57.716364c34.443636-18.928485 68.57697-37.85697 103.020606-56.785455-30.72 84.092121-2.792727 156.082424 67.335758 206.661818-37.546667 5.275152-74.78303 10.860606-112.019394 16.756364-18.928485 35.684848-38.167273 71.369697-58.33697 106.433939-26.375758-80.368485-83.471515-129.086061-170.666667-127.224242z"  horiz-adv-x="1024" />

    
    <glyph glyph-name="fengqinglianxiang" unicode="&#58908;" d="M90.608485 896H788.169697c29.789091-25.755152 75.093333-47.476364 77.575758-92.470303 12.101818-125.98303 13.34303-254.448485-0.620607-380.431515-15.204848-7.447273-44.993939-21.721212-60.198787-28.858182-8.998788 133.12 6.206061 267.481212-10.24 399.980606-5.895758 7.13697-17.687273 21.410909-23.893334 28.547879-223.107879 8.067879-448.698182 11.481212-671.80606-2.172121-36.615758-71.68-15.515152-157.633939-21.100606-235.209697 7.447273-206.041212-12.412121-413.323636 9.619394-618.43394 141.808485-53.682424 309.992727-4.344242 461.420606-27.927272l-31.650909-55.854546c-130.01697-14.273939-261.895758-8.998788-392.533334-4.033939-62.370909-2.172121-107.675152 58.957576-106.123636 117.294545C11.481212 203.093333 19.859394 409.755152 15.515152 616.41697 18.618182 713.541818-6.516364 835.180606 90.608485 896zM144.911515 654.584242c193.008485 19.859394 389.740606 17.687273 583.059394 1.551516-7.757576-14.894545-23.893333-44.373333-31.650909-59.267879-171.907879-7.447273-346.298182-11.170909-517.895758 1.861818l-33.512727 55.854545zM153.289697 454.128485c147.083636 17.066667 295.408485 7.13697 442.802424 8.998788 4.033939-15.204848 12.412121-45.614545 16.756364-60.819394-141.808485-19.238788-285.478788-12.412121-427.907879-7.757576-7.757576 14.894545-23.58303 44.683636-31.650909 59.578182zM721.764848 291.219394c25.134545 93.401212 169.735758 103.020606 206.661819 13.653333 37.546667-63.301818-19.238788-122.259394-50.269091-173.459394 9.929697-19.549091 29.478788-58.647273 39.408485-78.196363 83.161212 3.723636 149.566061-29.478788 165.391515-116.363637-14.584242-16.446061-43.752727-48.717576-58.33697-64.853333H633.328485c-29.478788 33.512727-58.647273 76.024242-39.408485 122.569697 17.997576 63.612121 97.124848 44.683636 146.152727 57.716364l36.305455 80.058181c-26.375758 48.407273-78.506667 98.676364-54.613334 158.875152m90.918788 11.481212c-63.612121-18.307879-44.06303-121.018182 24.203637-108.295758 73.231515 7.13697 49.958788 130.327273-24.203637 108.295758m36.615758-263.447273l3.723636 53.372122-22.652121 13.653333c-64.853333 2.792727-35.374545-107.364848 18.928485-67.025455m-199.524849-48.096969c-0.310303-13.653333-0.620606-40.96-0.930909-54.613334 127.844848 10.24 265.619394-28.237576 385.706667 27.927273-120.397576 54.30303-257.241212 17.687273-384.775758 26.686061zM192.698182 257.706667c94.952727 10.550303 192.387879 10.24 287.650909-1.861819 29.789091-32.892121 0-74.472727-41.580606-66.094545-85.333333-3.413333-170.666667-4.344242-255.689697 2.172121-5.275152 14.584242-15.825455 43.442424-21.410909 57.716364l31.030303 8.067879z"  horiz-adv-x="1086" />

    
    <glyph glyph-name="xiazai" unicode="&#58905;" d="M64.3 21.2v-62.6c0-4.8 3.9-8.7 8.7-8.7h878c4.8 0 8.7 3.9 8.7 8.7v62.6c0 4.8-3.9 8.7-8.7 8.7H73c-4.8 0-8.7-3.9-8.7-8.7zM483.2 121.1c3.2-2.9 6.8-5.3 10.9-7.1 5.2-2.3 10.7-3.4 16.1-3.4 9.8 0 19.5 3.6 27 10.5l291.4 270.4c3.5 3.2 3.7 8.7 0.5 12.2l-42.3 46.2c-3.3 3.6-8.8 3.8-12.3 0.5L550.2 241.5v528c0 4.8-3.9 8.7-8.7 8.7h-62.6c-4.8 0-8.7-3.9-8.7-8.7v-527.9L239.6 453.1c-3.5 3.2-9 3-12.3-0.5L185 406.3c-3.2-3.5-3-9 0.5-12.3l297.7-272.9z"  horiz-adv-x="1024" />

    
    <glyph glyph-name="huji" unicode="&#58882;" d="M245.174857 823.149714C366.592 925.257143 584.557714 864.402286 627.273143 708.461714c17.554286-72.265143 32.768-147.748571 27.794286-222.354285-22.235429-62.610286-64.073143-115.858286-100.937143-170.569143 133.997714 2.340571 270.336 16.091429 403.456-6.144l34.816-35.986286c12.288-104.155429 7.899429-209.773714 4.388571-314.514286 4.681143-47.981714-47.689143-83.090286-91.282286-81.042285-155.940571-6.436571-312.173714 3.510857-468.114285-4.973715-92.16 93.037714-49.444571 234.934857-54.125715 351.963429-5.558857 60.269714 52.077714 86.016 99.181715 103.570286 44.178286 56.173714 83.090286 116.443429 117.321143 179.346285-19.309714 75.776-19.602286 157.110857-54.710858 228.205715-63.195429 73.142857-194.267429 100.644571-270.921142 32.768-53.833143-60.269714-57.636571-146.578286-65.536-222.646858-16.676571-109.421714 135.460571-170.861714 101.522285-281.746285-31.597714-91.282286-143.067429-95.085714-215.332571-138.093715-39.204571-40.082286-21.065143-102.985143-28.086857-153.307428 100.937143-16.969143 204.214857-19.602286 304.274285-42.715429 0.292571-77.238857-90.404571-38.034286-135.753142-41.252571-73.435429 7.314286-145.993143 19.894857-218.258286 35.986286-13.750857 76.653714-32.768 164.132571 11.995428 234.934857 63.195429 66.706286 179.053714 53.833143 226.450286 141.019428-55.296 81.042286-138.093714 169.398857-109.421714 276.187429 12.580571 87.186286 28.379429 185.490286 99.181714 246.052571m201.289143-570.514285c0-102.4-10.24-205.970286 6.729143-307.785143 159.744-12.873143 320.365714-2.048 480.402286-4.681143 4.681143 104.448 4.681143 209.188571 2.633142 313.929143-163.254857 3.510857-326.802286 5.266286-489.764571-1.462857zM496.201143 194.998857c131.072 1.170286 282.038857 42.715429 398.482286-31.305143-124.635429-36.278857-257.170286-24.576-384.731429-15.506285-3.218286 11.702857-10.24 35.108571-13.750857 46.811428zM485.668571 76.8c86.308571 8.192 173.202286 7.899429 259.803429 2.633143-25.161143-97.133714-153.014857-51.492571-226.450286-50.029714-8.484571 11.702857-24.868571 35.401143-33.353143 47.396571z"  horiz-adv-x="1024" />

    
    <glyph glyph-name="zhiyuanzhe" unicode="&#58881;" d="M469.333 315.733a238.933 238.933 0 1 0 0 477.867 238.933 238.933 0 0 0 0-477.867z m0 51.2a187.733 187.733 0 1 1 0 375.467 187.733 187.733 0 0 1 0-375.467zM464.981 366.507a25.6 25.6 0 1 0 8.704-50.432c-208.64-35.84-315.306-144.726-326.4-331.051a25.6 25.6 0 1 0-51.114 3.072c12.586 211.03 137.685 338.688 368.81 378.453z m279.936-160.982a25.6 25.6 0 1 0-38.101 34.219c67.243 74.923 135.424 74.923 184.448-4.693 45.483-82.262-8.49-176.512-150.059-282.667a25.6 25.6 0 0 0-30.72 40.96c123.435 92.544 164.779 164.779 136.619 215.893-29.184 47.36-56.363 47.36-102.187-3.712zM704.427 205.525a25.6 25.6 0 0 1 38.058 34.219c-67.242 74.923-135.424 74.923-184.448-4.693-45.482-82.262 8.534-176.512 150.059-282.667a25.6 25.6 0 0 1 30.72 40.96C615.424 85.888 574.037 158.123 602.24 209.237c29.184 47.36 56.32 47.36 102.144-3.712z"  horiz-adv-x="1024" />

    
    <glyph glyph-name="liudongrenkou" unicode="&#58884;" d="M276.187429 810.276571C372.150857 906.24 549.156571 885.467429 629.028571 778.971429c44.763429-57.344 50.614857-132.534857 61.732572-201.581715 32.182857-130.779429-78.701714-240.201143-172.032-313.636571 16.969143 91.282286 78.701714 162.962286 124.342857 241.078857-18.724571 76.946286-20.187429 160.329143-55.588571 232.301714-68.461714 84.553143-235.227429 105.325714-296.374858 1.462857-33.938286-71.68-34.523429-152.722286-52.077714-228.790857 39.204571-82.505143 138.093714-155.355429 108.836572-255.122285-43.885714-87.478857-157.110857-84.845714-227.913143-139.556572-9.654857-47.104-9.362286-95.670857-11.702857-143.652571 98.889143-17.261714 198.948571-25.161143 298.130285-38.912 17.261714-77.824-86.016-38.912-126.976-42.422857-73.435429 7.606857-145.993143 20.772571-218.258285 35.986285-8.192 75.483429-28.964571 160.329143 11.702857 230.253715 62.610286 70.217143 186.660571 52.370286 226.450285 148.041142C253.366857 369.371429 196.022857 435.492571 184.027429 516.242286c14.336 100.937143 19.017143 215.332571 92.16 294.034285zM665.014857 335.140571c166.473143 51.492571 337.627429-127.561143 279.698286-291.693714-40.374857-163.84-272.969143-223.524571-386.779429-97.133714-125.805714 116.150857-62.610286 354.889143 107.081143 388.827428m-129.024-160.914285c22.820571-13.458286 68.461714-40.374857 91.282286-54.125715 50.029714 10.24 100.059429 18.432 150.674286 24.576-0.877714 14.043429-2.048 42.422857-2.633143 56.466286-81.627429 4.681143-169.106286 30.427429-239.323429-26.916571m157.988572-95.963429c-0.877714-13.458286-2.925714-40.667429-4.096-54.125714 53.248-7.021714 106.496-14.336 159.158857-23.990857 20.187429 12.288 60.562286 36.571429 80.749714 48.859428-19.894857 11.995429-59.684571 35.693714-79.579429 47.689143-52.077714-7.606857-104.155429-13.458286-156.233142-18.432z"  horiz-adv-x="1024" />

    
    <glyph glyph-name="zhongdianren" unicode="&#58885;" d="M264.864-69.728a38.656 38.656 0 0 0-38.656 38.656 417.792 417.792 0 0 0 243.264 380.064l9.664 4.384-8.384 6.56a268.736 268.736 0 0 0-100.8 210.4c0 147.488 116 267.36 257.824 267.36 144.928 0 257.888-117.44 257.888-267.36a268.416 268.416 0 0 0-157.312-241.184 211.968 211.968 0 0 1-53.248-16.896 237.664 237.664 0 0 0-38.656-4.768h-8.8c-179.328 0-325.12-149.952-325.12-334.112a39.616 39.616 0 0 0-37.664-43.104z m368.32 826.112c-98.368 0-181.504-85.216-181.504-186.016a181.504 181.504 0 1 1 363.008-0.096v0.064c-4.992 104.416-84.672 186.048-181.504 186.048zM44.8 20.128a38.656 38.656 0 0 0-38.656 38.656c0 140.128 72.576 263.488 189.504 322.304l8.384 4.256-6.976 6.304a238.56 238.56 0 0 0-74.24 174.816c0 130.08 95.776 235.936 213.472 235.936a38.656 38.656 0 0 0 0-77.312c-75.552-4.768-136.672-74.016-136.672-154.688 0-84.192 60.064-150.048 136.672-150.048 21.344 0 38.656-17.312 38.656-38.656a35.936 35.936 0 0 0-38.656-38.656c-139.744 0-253.344-123.776-253.344-275.776 0.416-28.032-15.072-47.136-38.144-47.136zM264.864-69.728a38.656 38.656 0 0 0-38.656 38.656 417.792 417.792 0 0 0 243.264 380.064l9.664 4.384-8.384 6.56a268.736 268.736 0 0 0-100.8 210.4c0 147.488 116 267.36 257.824 267.36 144.928 0 257.888-117.44 257.888-267.36a268.416 268.416 0 0 0-157.312-241.184 211.968 211.968 0 0 1-53.248-16.896 237.664 237.664 0 0 0-38.656-4.768h-8.8c-179.328 0-325.12-149.952-325.12-334.112a39.616 39.616 0 0 0-37.664-43.104z m368.32 826.112c-98.368 0-181.504-85.216-181.504-186.016a181.504 181.504 0 1 1 363.008-0.096v0.064c-4.992 104.416-84.672 186.048-181.504 186.048zM44.8 20.128a38.656 38.656 0 0 0-38.656 38.656c0 140.128 72.576 263.488 189.504 322.304l8.384 4.256-6.976 6.304a238.56 238.56 0 0 0-74.24 174.816c0 130.08 95.776 235.936 213.472 235.936a38.656 38.656 0 0 0 0-77.312c-75.552-4.768-136.672-74.016-136.672-154.688 0-84.192 60.064-150.048 136.672-150.048 21.344 0 38.656-17.312 38.656-38.656a35.936 35.936 0 0 0-38.656-38.656c-139.744 0-253.344-123.776-253.344-275.776 0.416-28.032-15.072-47.136-38.144-47.136z m784.64 159.936a23.776 23.776 0 1 0 47.616 0v-86.752a23.776 23.776 0 1 0-47.616 0v86.752z m24.448-127.776c14.816 0 26.4-11.584 26.4-26.4s-11.584-26.4-26.4-26.4-26.4 11.584-26.4 26.4c-0.608 14.176 11.584 26.4 26.4 26.4zM853.888 265.696a164.032 164.032 0 1 1 0.032-328.032 164.032 164.032 0 0 1-0.032 328.032z m0-298.656c-74.4 0-134.656 60.256-134.656 134.656a134.624 134.624 0 1 0 269.28 0A134.624 134.624 0 0 0 853.888-32.96z"  horiz-adv-x="1024" />

    
    <glyph glyph-name="shequ" unicode="&#58886;" d="M56.32 725.333333C48.128 800.085333 109.909333 871.765333 186.709333 866.645333 391.850667 870.741333 597.674667 869.717333 803.157333 867.328c78.506667 8.192 147.797333-61.781333 138.581334-140.288 0.682667-171.349333 5.461333-343.04-2.730667-514.389333-88.405333-123.562667-210.944-220.16-311.637333-333.824-157.354667 3.413333-315.050667-7.509333-471.722667 4.096-77.482667 8.533333-105.813333 93.184-100.352 160.085333C55.637333 270.336 52.906667 498.005333 56.32 725.333333m67.242667 33.792c-10.581333-227.328-0.682667-454.997333-4.437334-682.666666 5.461333-44.373333-15.36-109.568 40.618667-129.024 144.384-12.629333 289.792-1.365333 434.517333-5.12 4.778667 74.410667-11.264 153.941333 18.432 223.914666 55.296 93.184 178.517333 55.978667 267.946667 63.829334-4.437333 176.128 8.192 352.938667-5.802667 528.384-14.336 62.122667-94.549333 37.546667-139.605333 45.056-193.194667-4.778667-387.072 6.826667-579.925333-5.802667l-31.744-38.570667m546.133333-617.813333c-3.413333-33.792-10.581333-101.034667-13.994667-134.485333a2870.613333 2870.613333 0 0 1 159.402667 162.816c-46.762667-10.581333-107.178667 8.192-145.408-28.330667zM509.610667 743.082667c86.698667-76.458667 176.810667-149.162667 258.730666-231.082667-14.336-9.216-43.349333-27.648-57.685333-36.864-0.682667-60.757333-0.682667-121.514667-0.341333-182.272-24.576-3.413333-74.069333-10.581333-98.645334-13.994667 15.36 16.042667 46.08 48.128 61.781334 64.170667 2.730667 64.512 6.485333 128.682667 13.312 192.853333-58.368 52.224-116.394667 104.789333-174.08 158.037334-61.44-50.517333-122.197333-102.058667-182.272-154.282667 9.557333-72.704 13.653333-146.090667 15.701333-219.818667 29.696 0.341333 88.405333 0.682667 117.76 1.024-60.416 49.152-87.04 112.981333-78.848 191.488 22.186667-25.941333 41.984-53.589333 62.122667-81.237333 16.725333 79.530667 117.76 116.053333 175.786666 53.930667 53.248-83.968-57.344-143.018667-101.717333-200.362667-64.170667 1.024-128.682667-1.024-192.512 6.485333-44.032 48.469333-17.066667 124.586667-24.576 184.661334-18.432 7.168-55.637333 21.504-74.410667 28.672 93.525333 79.189333 186.368 159.402667 279.893334 238.592zM172.373333 139.946667c122.88 68.608 273.066667 23.893333 407.552 30.378666-7.850667-10.922667-23.552-32.085333-31.402666-43.008-124.928-10.922667-252.928-12.970667-376.149334 12.629334zM174.421333 35.84c98.986667 70.656 231.765333 24.576 345.088 34.474667-6.826667-11.264-20.48-34.133333-27.306666-45.738667-105.472-11.946667-213.333333-9.216-317.781334 11.264z"  horiz-adv-x="1024" />

    
    <glyph glyph-name="zhongdianshangfang" unicode="&#58887;" d="M113.778 896h796.444a56.889 56.889 0 0 0 56.89-56.889v-909.568a56.889 56.889 0 0 0-93.071-43.918L548.18 154.169a56.889 56.889 0 0 1-72.362 0l-325.86-268.516a56.889 56.889 0 0 0-93.07 43.862V839.11A56.889 56.889 0 0 0 113.778 896z m0-56.889v-909.568l325.86 268.516a113.778 113.778 0 0 0 144.725 0l325.86-268.487V839.112H113.777zM584.76 562.916h105.018a28.444 28.444 0 0 0 28.245-31.858L698.14 366.962a28.444 28.444 0 0 0-1.877-7.254c-14.222-35.128-52.338-49.891-109.227-49.891a28.444 28.444 0 1 0 0 56.889c32.825 0 50.006 5.461 55.268 12.23l15.36 127.09H580.38c-10.922-93.923-39.253-157.752-87.04-191.09a28.444 28.444 0 1 0-32.54 46.65c42.667 29.753 66.816 107.89 67.897 235.235h-43.321a28.444 28.444 0 0 0 0 56.89h98.133c-0.71 1.933-1.564 4.351-2.56 6.94-4.039 10.78-10.24 25.97-18.574 45.482a28.444 28.444 0 1 0 52.338 22.33c17.891-41.956 25.913-62.72 27.42-74.753h89.487a28.444 28.444 0 1 0 0-56.889H585.586a926.452 926.452 0 0 0-0.854-33.905zM308.85 653.14a28.444 28.444 0 0 0 40.818 39.652l63.43-65.28a28.444 28.444 0 0 0-40.817-39.652l-63.431 65.28z m50.176-147.114h-44.772a28.444 28.444 0 1 0 0 56.889h79.673a28.444 28.444 0 0 0 27.876-34.162l-24.662-119.61 12.658 10.042a28.444 28.444 0 0 0 35.357-44.573l-73.984-58.652c-20.822-16.498-50.916 2.02-45.512 28.046l33.366 162.02z"  horiz-adv-x="1024" />

    
    <glyph glyph-name="zongzhiduiwu" unicode="&#58888;" d="M643.302-128a25.613 25.613 0 0 0-25.241 29.926l23.641 137.78-100.083 97.561a25.6 25.6 0 0 0 14.183 43.674l138.33 20.083 61.836 125.325a25.6 25.6 0 0 0 45.914 0.013l61.875-125.338 138.33-20.083a25.6 25.6 0 0 0 14.182-43.674l-100.083-97.561 23.641-137.78a25.613 25.613 0 0 0-37.145-26.982l-123.738 65.037-123.712-65.037a25.693 25.693 0 0 0-11.93-2.944z m135.63 122.496c4.082 0 8.191-0.973 11.916-2.931l89.74-47.181-17.151 99.93a25.664 25.664 0 0 0 7.373 22.668l72.588 70.746-100.313 14.566a25.626 25.626 0 0 0-19.277 14.004l-44.877 90.905-44.838-90.893a25.6 25.6 0 0 0-19.29-14.016L614.49 137.728l72.588-70.746a25.616 25.616 0 0 0 7.373-22.668L677.3-55.603l89.715 47.168a25.6 25.6 0 0 0 11.917 2.931zM435.2 409.6C301.094 409.6 192 518.694 192 652.8S301.094 896 435.2 896s243.2-109.094 243.2-243.2-109.094-243.2-243.2-243.2z m0 435.2c-105.869 0-192-86.131-192-192s86.131-192 192-192 192 86.131 192 192-86.131 192-192 192zM25.6 0A25.6 25.6 0 0 0 0 25.6c0 239.974 195.226 435.2 435.2 435.2 135.731 0 261.325-61.709 344.602-169.293a25.626 25.626 0 0 0-40.5-31.36C665.805 355.136 554.957 409.6 435.2 409.6c-211.738 0-384-172.262-384-384A25.6 25.6 0 0 0 25.6 0zM780.8 409.6a25.6 25.6 0 0 0 0 51.2c105.869 0 192 86.131 192 192s-86.131 192-192 192a25.6 25.6 0 0 0 0 51.2C914.906 896 1024 786.906 1024 652.8S914.906 409.6 780.8 409.6zM998.374 347.136a25.472 25.472 0 0 0-13.593 3.93A383.104 383.104 0 0 1 780.8 409.6a25.6 25.6 0 0 0 0 51.2 434.06 434.06 0 0 0 231.206-66.38 25.587 25.587 0 0 0-13.632-47.284z"  horiz-adv-x="1024" />

    
    <glyph glyph-name="zufang" unicode="&#58889;" d="M282.42 10.138a72.192 72.192 0 0 0-71.68 71.68V381.235H140.8a71.68 71.68 0 0 0-51.2 122.88 20.48 20.48 0 0 0 3.482 2.765L450.56 740.147a116.224 116.224 0 0 0 122.88 0.205L930.918 506.88a20.48 20.48 0 0 0 3.277-2.662 71.68 71.68 0 0 0-51.2-122.88H796.57a20.48 20.48 0 0 0 0 40.96h86.63a30.72 30.72 0 0 1 23.347 51.916l-355.533 231.63a74.752 74.752 0 0 1-78.336 0L117.453 474.01a30.72 30.72 0 0 1 23.347-51.917h90.01a20.48 20.48 0 0 0 20.48-20.48V82.33a30.72 30.72 0 0 1 30.72-30.72 20.48 20.48 0 0 0 0-40.96zM408.986 357.069a20.48 20.48 0 0 0-3.482 40.96c104.755 18.227 153.6 43.213 153.6 43.417a20.48 20.48 0 0 0 19.456-36.966c-2.15-1.126-54.067-27.955-165.99-47.514a20.48 20.48 0 0 0-3.584 0.103z m172.85-92.775H394.343a20.48 20.48 0 0 0 0 40.96h187.495a20.48 20.48 0 0 0 0-40.96zM849.92 10.138H564.531a20.48 20.48 0 0 0 0 40.96H849.92a20.48 20.48 0 0 0 0-40.96zM493.466 10.138a20.48 20.48 0 0 0-20.48 20.48v358.4a20.48 20.48 0 1 0 40.96 0v-358.4a20.48 20.48 0 0 0-20.48-20.48zM572.211 131.174a20.48 20.48 0 0 0-17.613 10.24 556.032 556.032 0 0 1-76.185 100.25 20.48 20.48 0 0 0 28.774 29.184 587.162 587.162 0 0 0 82.637-108.749 20.48 20.48 0 0 0-17.613-30.72zM401.306 71.578a20.48 20.48 0 0 0-16.999 31.846A792.986 792.986 0 0 1 473.19 291.84 20.48 20.48 0 1 0 512 280.166a822.989 822.989 0 0 0-94.106-199.475 20.48 20.48 0 0 0-16.588-9.113z m389.12-61.44a20.48 20.48 0 0 0-20.48 20.48V381.235h-104.96v-350.617a20.48 20.48 0 0 0-40.96 0V401.715a20.48 20.48 0 0 0 20.48 20.48h145.92a20.48 20.48 0 0 0 20.48-20.48v-371.097a20.48 20.48 0 0 0-20.48-20.48zM787.866 258.458H645.12a20.48 20.48 0 0 0 0 40.96h142.746a20.48 20.48 0 0 0 0-40.96z m0-122.88H645.12a20.48 20.48 0 0 0 0 40.96h142.746a20.48 20.48 0 0 0 0-40.96z"  horiz-adv-x="1024" />

    
    <glyph glyph-name="shouye" unicode="&#58899;" d="M824 490.6L530.7 703.3c-1 0.7-2.1 0.9-3.2 1.4l-0.4 0.2c-3 1.7-6.3 2.8-9.7 3.4-1.7 0.3-3.4 0.2-5.2 0.2-1.7 0-3.4 0.1-5.2-0.2-3.4-0.6-6.8-1.8-9.8-3.5l-0.2-0.1c-1.1-0.6-2.2-0.8-3.2-1.5L200.6 490.6c-13.8-9.4-17.3-28-7.7-41.5 9.5-13.6 28.5-16.9 42.3-7.6l1.2 0.9 12.5 9.1v-229.7c0-38.4 31.9-69.6 70.9-69.6h152v13.3h0.3c0 0.6-0.3 1-0.3 1.6V286.4c0 22 18.1 39.8 40.5 39.8s40.5-17.8 40.5-39.8v-119.3c0-0.6-0.3-1-0.3-1.6h0.3v-13.3h152c39.1 0 70.9 31.2 70.9 69.6V451.4l12.4-9c13.6-9.7 32.6-6.8 42.5 6.5s7 32-6.6 41.7zM715 221.8c0-5.5-4.5-9.9-10.1-9.9h-91.2v74.6c0 54.9-45.4 99.4-101.3 99.4S411 341.3 411 286.4v-74.6h-91.2c-5.6 0-10.1 4.5-10.1 9.9V495.5l202.7 146.9 202.7-147-0.1-273.6zM511-126C228.8-126 0 102.8 0 385S228.8 896 511 896s511-228.8 511-511-228.8-511-511-511z m0 92.9c230.9 0 418.1 187.2 418.1 418.1S741.9 803.1 511 803.1 92.9 615.9 92.9 385 280.1-33.1 511-33.1z"  horiz-adv-x="1024" />

    
    <glyph glyph-name="feizhengchangshangfang" unicode="&#58897;" d="M335.127273 896H961.939394v-885.915152c-9.929697 11.791515-30.099394 34.753939-40.339394 46.545455-84.712727-60.198788-167.873939-122.569697-251.345455-184.32-0.620606 259.10303-0.310303 517.895758-0.310303 776.998788 87.195152 64.853333 174.700606 129.086061 260.344243 196.421818-183.699394 4.964848-367.088485 2.172121-550.787879 2.482424 0-47.476364 0-94.642424 0.310303-142.118788l-45.924848-0.620606c0.310303 63.612121 0.620606 126.913939 1.241212 190.526061zM382.913939 533.255758c1.551515 43.752727 1.551515 87.815758 8.688485 130.947878 25.444848-45.304242 57.406061-86.574545 80.058182-133.430303 46.855758-4.654545 94.021818-9.929697 140.877576-16.135757-47.786667-89.367273-163.529697-35.684848-242.346667-62.681212 57.406061-20.169697 118.225455-26.686061 176.562424-43.132122-1.551515-82.540606-7.447273-166.94303-33.512727-245.76-38.477576-21.100606-82.540606-28.237576-125.052121-36.305454-12.722424 26.686061-25.755152 53.061818-38.787879 79.747879-14.584242-17.997576-44.06303-53.682424-58.647273-71.68-106.744242-32.581818-8.067879 63.922424-0.620606 99.607272 37.85697 64.54303 40.029091 141.187879 51.510303 213.178182-28.547879 12.101818-86.264242 36.305455-115.122424 48.407273 50.269091 18.928485 103.020606 30.409697 156.392727 37.236364m-20.790303-274.928485c12.101818-26.375758 25.444848-52.130909 40.029091-77.575758 94.021818 22.652121 61.129697 127.534545 78.81697 193.629091-63.612121-8.688485-104.572121-55.854545-118.846061-116.053333zM79.437576 597.798788c46.545455-26.686061 87.815758-61.129697 129.706666-94.332121-3.10303-80.989091-4.344242-161.978182-11.791515-242.65697 19.859394-3.723636 58.957576-11.791515 78.506667-15.825455-53.061818-48.717576-107.364848-95.883636-166.012121-138.084848 6.206061 90.608485 18.307879 180.286061 29.789091 270.273939-19.238788-8.067879-58.026667-24.513939-77.575758-32.581818v68.266667l117.915152 16.135757C136.533333 478.642424 79.747879 525.187879 79.437576 597.798788z"  horiz-adv-x="1024" />

    
    </font>
</defs>
</svg>
